<?xml version="1.0" standalone="no"?>
<!DOCTYPE svg PUBLIC "-//W3C//DTD SVG 1.1//EN" "http://www.w3.org/Graphics/SVG/1.1/DTD/svg11.dtd" >
<svg xmlns="http://www.w3.org/2000/svg">
<metadata></metadata>
<defs>
<font id="dosisbook" horiz-adv-x="1130" >
<font-face units-per-em="2048" ascent="1638" descent="-410" />
<missing-glyph horiz-adv-x="409" />
<glyph unicode="&#xfb01;" horiz-adv-x="1036" d="M129 51v1120q0 74 27.5 143.5t82 125t133.5 89.5t183 34q57 0 113.5 -10.5t101.5 -28t72.5 -40t27.5 -48.5q0 -20 -15 -47t-38 -27q-14 0 -31.5 12t-47 27.5t-72 28t-105.5 12.5q-84 0 -141.5 -25.5t-92 -64.5t-50 -86t-15.5 -90v-207h260q23 0 35 -16.5t12 -37.5 q0 -23 -12 -40t-35 -17h-260v-807q0 -23 -20.5 -37t-48.5 -14q-27 0 -45.5 14.5t-18.5 36.5zM776 53v867q0 23 18.5 36t47.5 13t48 -13.5t19 -35.5v-867q0 -20 -19.5 -36.5t-47.5 -16.5q-29 0 -47.5 16.5t-18.5 36.5z" />
<glyph unicode="&#xfb02;" horiz-adv-x="1054" d="M129 51v1120q0 92 37 165t98.5 123t141 77t165.5 27q90 0 184.5 -34t153.5 -106v-1370q0 -20 -19.5 -36.5t-47.5 -16.5q-29 0 -47.5 16.5t-18.5 36.5v1321q-41 41 -96 60.5t-113 19.5q-57 0 -112.5 -19.5t-98.5 -55.5t-68.5 -87t-25.5 -116v-207h260q23 0 35 -16.5 t12 -37.5q0 -23 -12 -40t-35 -17h-260v-807q0 -23 -20.5 -37t-48.5 -14q-27 0 -45.5 14.5t-18.5 36.5z" />
<glyph horiz-adv-x="0" />
<glyph unicode="&#xd;" horiz-adv-x="0" />
<glyph unicode=" "  horiz-adv-x="409" />
<glyph unicode="&#x09;" horiz-adv-x="409" />
<glyph unicode="&#xa0;" horiz-adv-x="409" />
<glyph unicode="!" horiz-adv-x="419" d="M117 82q0 41 26.5 68.5t67.5 27.5q39 0 65.5 -27.5t26.5 -68.5q0 -37 -26.5 -65.5t-65.5 -28.5q-41 0 -67.5 28.5t-26.5 65.5zM131 1444q0 39 22.5 59.5t55.5 20.5t55.5 -20.5t22.5 -59.5q0 -254 -11.5 -529.5t-11.5 -529.5q0 -25 -19.5 -36t-35.5 -11q-20 0 -36.5 11 t-16.5 36q0 254 -12.5 529.5t-12.5 529.5z" />
<glyph unicode="&#x22;" horiz-adv-x="552" d="M78 1528q0 20 20 32.5t43 12.5t45.5 -12.5t22.5 -32.5l-21 -301q0 -18 -11 -32.5t-36 -14.5q-23 0 -33 14t-10 33zM344 1528q0 20 20.5 32.5t43.5 12.5t45 -12.5t22 -32.5l-20 -301q0 -18 -11.5 -32.5t-35.5 -14.5q-23 0 -33 14t-10 33z" />
<glyph unicode="#" horiz-adv-x="1193" d="M53 569q0 23 11.5 38.5t29.5 15.5h225l50 327h-197q-49 0 -49 54q0 23 11 37t30 14h225l60 375q4 14 18.5 22t32.5 8q29 0 47 -15t18 -44l-55 -346h260l59 375q4 14 18.5 22t33.5 8q29 0 47 -15t18 -44l-55 -346h201q16 0 33.5 -14.5t17.5 -36.5q0 -23 -13.5 -38.5 t-29.5 -15.5h-226l-53 -327h201q16 0 33.5 -14.5t17.5 -39.5q0 -23 -13 -37t-30 -14h-227l-64 -407q-4 -18 -21.5 -29.5t-35.5 -11.5q-25 0 -44.5 15t-19.5 44l60 389h-256l-64 -405q-4 -23 -21.5 -33t-33.5 -10q-25 0 -44 15t-19 44l57 389h-195q-49 0 -49 51zM440 623h258 l52 327h-258z" />
<glyph unicode="$" horiz-adv-x="1021" d="M80 227q0 25 19.5 50.5t41.5 25.5q18 0 39 -25.5t57.5 -56.5t96 -57.5t155.5 -28.5v596q-68 25 -134 51.5t-119.5 68.5t-86 105.5t-32.5 161.5q0 96 32.5 162t86 106.5t120 60t133.5 23.5v64q0 16 13.5 27.5t34.5 11.5q16 0 31.5 -11.5t15.5 -27.5v-59q55 -2 110.5 -12.5 t100.5 -27t72.5 -39t27.5 -46.5q0 -20 -15.5 -48t-43.5 -28q-14 0 -34 10t-48.5 24.5t-70.5 26t-99 15.5v-508q63 -23 125.5 -53.5t111.5 -78.5t80 -120t31 -176q0 -186 -97.5 -283.5t-250.5 -118.5v-80q0 -16 -15.5 -27t-31.5 -11q-20 0 -34 11t-14 27v74 q-96 0 -172.5 24.5t-129 59.5t-80 72t-27.5 65zM246 1130q0 -59 20.5 -100t54 -70.5t78.5 -49t95 -38.5v476q-49 -4 -93.5 -17.5t-79 -39t-55 -65t-20.5 -96.5zM578 139q109 16 166 81.5t57 180.5q0 68 -17.5 115t-48 81t-71.5 58.5t-86 42.5v-559z" />
<glyph unicode="%" horiz-adv-x="1550" d="M82 952v312q0 127 72.5 180t181.5 53q53 0 100 -12t81 -40t53.5 -73t19.5 -108v-312q0 -63 -19.5 -108t-53.5 -73t-81 -40t-100 -12q-109 0 -181.5 53t-72.5 180zM186 952q0 -72 39 -106.5t111 -34.5t111.5 35t39.5 106v312q0 72 -39.5 106.5t-111.5 34.5t-111 -35 t-39 -106v-312zM340 -4q0 12 6 24l780 1530q6 14 17.5 19.5t23.5 5.5q20 0 39 -15.5t19 -39.5q0 -14 -6 -27l-777 -1518q-16 -31 -49 -30q-23 0 -38 15t-15 36zM961 227v312q0 125 72.5 179t180.5 54q53 0 100.5 -13.5t81.5 -41t53 -71.5t19 -107v-312q0 -63 -19 -108 t-53 -73t-81.5 -40t-100.5 -12q-109 0 -181 53t-72 180zM1065 227q0 -72 39 -106.5t110 -34.5q72 0 112 35t40 106v312q0 72 -40 106.5t-112 34.5t-110.5 -35t-38.5 -106v-312z" />
<glyph unicode="&#x26;" horiz-adv-x="1249" d="M70 416q0 78 23.5 142.5t63.5 115.5t89 88t102 61q-31 37 -60.5 76t-53 83t-38 93t-14.5 109q0 84 30 148.5t80 109.5t117.5 67.5t143.5 22.5q84 0 146.5 -22.5t104.5 -54.5t62.5 -65.5t20.5 -54.5q0 -27 -18.5 -44t-45.5 -17q-20 0 -37.5 22.5t-44 50t-69.5 50 t-113 22.5q-111 0 -174 -66.5t-63 -176.5q0 -53 16 -101.5t43 -91.5t60.5 -83t70.5 -79l416 -454q43 98 54 199.5t15 172.5q2 29 14.5 42.5t47.5 13.5q33 0 45 -17.5t12 -54.5q0 -31 -4 -82t-15.5 -111.5t-30.5 -126t-52 -129.5l186 -202q14 -16 14 -29q0 -23 -19 -40 t-42 -17q-20 0 -39 18l-166 178q-66 -88 -165 -145t-244 -57q-111 0 -199 34.5t-147.5 95t-91 139.5t-31.5 167zM207 428q0 -66 22.5 -125t67.5 -103t110.5 -71t149.5 -27q115 0 188.5 47.5t118.5 118.5l-440 469q-35 -20 -73 -45.5t-69.5 -62.5t-53 -86t-21.5 -115z" />
<glyph unicode="'" horiz-adv-x="286" d="M78 1528q0 20 20 32.5t43 12.5t45.5 -12.5t22.5 -32.5l-21 -301q0 -18 -11 -32.5t-36 -14.5q-23 0 -33 14t-10 33z" />
<glyph unicode="(" horiz-adv-x="612" d="M127 309v887q0 78 29.5 146.5t82 119.5t122 81t147.5 30q35 0 50 -17.5t15 -42.5q0 -29 -14 -46t-35 -17q-63 0 -111 -22.5t-82 -58.5t-51.5 -82t-17.5 -91v-887q0 -70 24.5 -113.5t62.5 -69.5t85 -35t90 -9q29 0 39 -19.5t10 -42.5q0 -29 -15 -45t-52 -16 q-80 0 -148.5 22.5t-120 66.5t-81 109.5t-29.5 151.5z" />
<glyph unicode=")" horiz-adv-x="612" d="M39 20q0 23 10 42.5t39 19.5q43 0 90 9t85 35t62.5 70t24.5 113v887q0 45 -17.5 91t-51 82t-81.5 58.5t-112 22.5q-23 0 -36 17.5t-13 45.5q0 25 15.5 42.5t49.5 17.5q78 0 148 -30t122 -81t81.5 -119.5t29.5 -146.5v-887q0 -86 -29.5 -151.5t-80.5 -109.5t-120 -66.5 t-149 -22.5q-37 0 -52 16.5t-15 44.5z" />
<glyph unicode="*" horiz-adv-x="882" d="M68 1212q0 23 15 41.5t42 18.5q8 0 14 -2l258 -90l-10 266q2 27 17.5 39t37.5 12q23 0 38.5 -12t17.5 -39l-11 -268l258 92q4 2 9.5 2h9.5q23 0 37 -19.5t14 -42.5q0 -39 -35 -47l-256 -73l166 -224q8 -10 8 -28q0 -25 -19.5 -41.5t-41.5 -16.5q-10 0 -20.5 4t-18.5 17 l-156 229l-155 -231q-12 -18 -35 -19q-18 0 -42 14.5t-24 41.5q0 16 13 32l163 217l-260 78q-18 4 -26 18.5t-8 30.5z" />
<glyph unicode="+" horiz-adv-x="882" d="M63 492q0 27 13.5 44t36.5 17h270v266q0 20 17.5 36.5t41.5 16.5q27 0 43.5 -16t16.5 -37v-266h266q20 0 36.5 -17.5t16.5 -43.5q0 -27 -16.5 -42.5t-36.5 -15.5h-266v-270q0 -23 -16.5 -36t-43.5 -13q-25 0 -42 13t-17 36v270h-270q-23 0 -36.5 15.5t-13.5 42.5z" />
<glyph unicode="," horiz-adv-x="350" d="M82 82q0 41 26.5 68.5t65.5 27.5q35 0 64.5 -25.5t29.5 -70.5q0 -6 -1 -16.5t-9 -34t-23.5 -65.5t-44.5 -113q-12 -25 -40 -25q-16 0 -33 10t-17 29q0 12 2 20l41 107q-29 10 -45 34.5t-16 53.5z" />
<glyph unicode="-" horiz-adv-x="845" d="M106 492q0 27 14.5 44t37.5 17h532q20 0 35.5 -17.5t15.5 -43.5q0 -27 -15 -42.5t-36 -15.5h-532q-52 1 -52 58z" />
<glyph unicode="." horiz-adv-x="350" d="M82 82q0 41 26.5 68.5t67.5 27.5q37 0 64.5 -27.5t27.5 -68.5q0 -37 -27.5 -65.5t-64.5 -28.5q-41 0 -67.5 28.5t-26.5 65.5z" />
<glyph unicode="/" horiz-adv-x="970" d="M41 -4q0 12 6 24l780 1530q6 14 17.5 19.5t23.5 5.5q20 0 40 -15.5t20 -39.5q0 -16 -8 -27l-777 -1518q-6 -16 -19 -23t-30 -7q-23 0 -38 15t-15 36z" />
<glyph unicode="0" horiz-adv-x="1089" d="M119 426v635q0 119 32.5 202t90 135t135.5 75.5t168 23.5t168 -23.5t135 -75.5t90 -135t33 -202v-635q0 -121 -33 -204t-90 -135t-135 -75.5t-168 -23.5t-168 23.5t-135.5 75.5t-90 135t-32.5 204zM254 426q0 -162 77 -237.5t214 -75.5t214 75.5t77 237.5v635 q0 160 -77 235.5t-214 75.5t-214 -75.5t-77 -235.5v-635zM471 741q0 33 20.5 53.5t55.5 20.5q31 0 52.5 -20.5t21.5 -53.5q0 -31 -21.5 -53t-52.5 -22q-35 0 -55.5 22.5t-20.5 52.5z" />
<glyph unicode="1" horiz-adv-x="477" d="M27 1169q0 14 10 33t20 29l168 237q10 12 20.5 21.5t30.5 9.5q23 0 41.5 -13t18.5 -38v-1395q0 -27 -21.5 -40t-46.5 -13q-27 0 -47 13.5t-20 39.5v1215l-82 -133q-16 -25 -39 -25t-38 18.5t-15 40.5z" />
<glyph unicode="2" horiz-adv-x="972" d="M70 53v199q0 84 51 155.5t128 136t167 126t166.5 127t128 139.5t51.5 164q0 49 -16.5 97t-51.5 86t-87 62.5t-122 24.5q-106 0 -176.5 -59.5t-70.5 -182.5q0 -20 -18.5 -37.5t-53.5 -17.5q-31 0 -46.5 18.5t-15.5 65.5q0 74 30 136.5t82 107.5t122 70.5t151 25.5 q88 0 163 -30.5t129.5 -83t85 -125t30.5 -154.5q0 -111 -51 -198t-127 -158.5t-166 -133t-166 -119t-127 -117t-51 -126.5v-127h653q20 0 34.5 -18.5t14.5 -43.5t-14 -44t-35 -19h-729q-20 0 -41.5 14.5t-21.5 38.5z" />
<glyph unicode="3" horiz-adv-x="997" d="M57 326q0 43 14.5 57t49.5 14q41 0 55 -15t14 -42q0 -33 13.5 -73t46.5 -73.5t89 -57t140 -23.5q143 0 219 73.5t76 233.5v39q0 141 -79 206.5t-212 65.5q-29 0 -41 17.5t-12 39.5q0 23 11.5 41.5t39.5 18.5q123 0 189.5 55t66.5 207q0 135 -59.5 199.5t-188.5 64.5 q-80 0 -131 -21.5t-80.5 -54t-40 -71.5t-10.5 -72q0 -66 -65 -65q-41 0 -55.5 16t-14.5 61q0 43 17.5 99.5t61.5 107.5t122 87t201 36q82 0 151.5 -19.5t118.5 -62.5t76.5 -111.5t27.5 -166.5q0 -141 -48 -226.5t-120 -119.5q92 -37 150.5 -116t58.5 -216v-39 q0 -117 -33.5 -200t-91 -134t-136.5 -74.5t-167 -23.5q-109 0 -188.5 31.5t-131.5 81t-78 108.5t-26 117z" />
<glyph unicode="4" horiz-adv-x="909" d="M16 408q0 20 9 34l514 1014q10 23 27.5 32t35.5 9q20 0 43 -15.5t23 -39.5q0 -12 -6 -27l-474 -934h402v396q0 27 20.5 39t46.5 12q25 0 46.5 -12.5t21.5 -38.5v-396h113q27 0 39 -20.5t12 -42.5q0 -25 -14.5 -45.5t-36.5 -20.5h-113v-299q0 -27 -21.5 -40t-46.5 -13 q-27 0 -47 13.5t-20 39.5v299h-520q-27 0 -40.5 16.5t-13.5 39.5z" />
<glyph unicode="5" horiz-adv-x="970" d="M57 336q0 37 18.5 52t47.5 15q70 0 70 -57q0 -55 22.5 -99t61 -74t91 -45t113.5 -15q137 0 214 74.5t77 234.5v39q0 154 -77 228.5t-212 74.5h-284q-43 0 -56.5 14.5t-13.5 36.5q0 6 1 20.5t1 20.5l41 590q6 51 43 51h573q23 0 34.5 -19.5t11.5 -41.5q0 -25 -11.5 -44.5 t-34.5 -19.5h-495l-33 -491h223q90 0 168 -22.5t134.5 -73t89 -130.5t32.5 -194v-39q0 -119 -32.5 -201t-90 -134t-135.5 -75.5t-166 -23.5q-102 0 -181 28.5t-133 75.5t-83 110.5t-29 133.5z" />
<glyph unicode="6" horiz-adv-x="1058" d="M119 426v635q0 119 32.5 202t91 135t136.5 75.5t170 23.5q102 0 181 -29.5t132 -79t81 -112t28 -129.5q0 -35 -17.5 -48.5t-46.5 -13.5t-50 12.5t-21 43.5q0 53 -22.5 96t-62.5 72.5t-93.5 46t-112.5 16.5q-137 0 -214 -75.5t-77 -235.5v-313q53 72 133 103.5t176 31.5 q86 0 160 -19.5t129 -67.5t87 -126t32 -195v-49q0 -121 -33 -204t-90 -135t-135 -75.5t-168 -23.5t-168 23.5t-135.5 75.5t-90 135t-32.5 204zM254 420q0 -160 77 -235.5t214 -75.5t214 75.5t77 235.5v49q0 162 -77 229.5t-214 67.5q-133 0 -212 -63.5t-79 -215.5v-67z" />
<glyph unicode="7" horiz-adv-x="940" d="M55 1137v309q0 18 19.5 34.5t42.5 16.5h727q23 0 43 -16.5t20 -34.5v-176q0 -29 -20 -60l-608 -1187q-14 -27 -46 -27q-31 0 -56 18.5t-25 46.5q0 8 8 29l612 1172v110h-582v-235q0 -23 -20 -37.5t-47 -14.5q-29 0 -48.5 14.5t-19.5 37.5z" />
<glyph unicode="8" horiz-adv-x="1028" d="M88 410v24q0 160 61.5 251t161.5 132q-82 35 -132 112t-50 210q0 100 29.5 169.5t81 110.5t122 59.5t152.5 18.5t152.5 -18.5t123 -59.5t81 -110.5t28.5 -169.5q0 -133 -49 -210t-131 -112q100 -41 160.5 -132t60.5 -251v-24q0 -115 -33 -195t-90 -131t-135 -73.5 t-168 -22.5t-168 22.5t-135 73.5t-90 131t-33 195zM223 420q0 -160 78 -237t215 -77t213 77t76 237v29q0 160 -77 232.5t-214 72.5q-135 0 -213 -73t-78 -232v-29zM262 1128q0 -135 66.5 -194.5t185.5 -59.5q121 0 187.5 59.5t66.5 194.5t-66.5 192.5t-187.5 57.5 q-119 0 -185.5 -57t-66.5 -193z" />
<glyph unicode="9" horiz-adv-x="1058" d="M88 338q0 63 64 63q27 0 48 -13t21 -44q0 -53 22.5 -96t62.5 -73t93.5 -46t112.5 -16q139 0 216 75.5t77 237.5v313q-53 -72 -133 -104.5t-176 -32.5q-86 0 -160 19.5t-129 67.5t-87 127t-32 196v49q0 119 33 202t89 135t134 75.5t168 23.5t168 -23.5t136 -75.5t91 -135 t33 -202v-635q0 -121 -33 -204t-91 -135t-137 -75.5t-169 -23.5q-104 0 -183 29.5t-132.5 78.5t-80 111.5t-26.5 130.5zM223 1016q0 -162 76 -229.5t215 -67.5q66 0 120 15.5t92 48t58.5 86t20.5 128.5v68q0 162 -78 237.5t-215 75.5t-213 -75.5t-76 -237.5v-49z" />
<glyph unicode=":" horiz-adv-x="415" d="M115 82q0 41 26.5 68.5t67.5 27.5q37 0 64.5 -27.5t27.5 -68.5q0 -37 -27.5 -65.5t-64.5 -28.5q-41 0 -67.5 28.5t-26.5 65.5zM115 770q0 41 26.5 68.5t67.5 27.5q37 0 64.5 -27.5t27.5 -68.5q0 -37 -27.5 -65.5t-64.5 -28.5q-41 0 -67.5 28.5t-26.5 65.5z" />
<glyph unicode=";" horiz-adv-x="428" d="M119 82q0 41 26.5 68.5t65.5 27.5q35 0 64.5 -25.5t29.5 -70.5q0 -6 -1 -16.5t-9 -34t-23.5 -65.5t-44.5 -113q-12 -25 -41 -25q-16 0 -32.5 10t-16.5 29q0 12 2 20l41 107q-29 10 -45 34.5t-16 53.5zM125 770q0 41 26.5 68.5t67.5 27.5q37 0 64.5 -27.5t27.5 -68.5 q0 -37 -27.5 -65.5t-64.5 -28.5q-41 0 -67.5 28.5t-26.5 65.5z" />
<glyph unicode="&#x3c;" horiz-adv-x="819" d="M51 567q0 16 9.5 31.5t23.5 26.5l551 364q10 8 24 8q23 0 43.5 -18t20.5 -45q0 -29 -23 -43l-487 -324l487 -321q23 -14 23 -43q0 -27 -20.5 -45.5t-43.5 -18.5q-14 0 -24 8l-551 365q-33 20 -33 55z" />
<glyph unicode="=" horiz-adv-x="888" d="M135 340q0 25 13.5 42t35.5 17h518q20 0 36 -17t16 -42q0 -27 -15.5 -43t-36.5 -16h-518q-23 0 -36 16t-13 43zM135 756q0 25 13.5 42t35.5 17h518q20 0 36 -17.5t16 -41.5q0 -27 -15.5 -43.5t-36.5 -16.5h-518q-23 0 -36 16.5t-13 43.5z" />
<glyph unicode="&#x3e;" horiz-adv-x="817" d="M96 203q0 29 23 43l487 321l-487 324q-23 14 -23 43q0 27 20.5 45t43.5 18q14 0 24 -8l551 -364q14 -10 23.5 -26t9.5 -32q0 -35 -33 -55l-551 -365q-10 -8 -24 -8q-23 0 -43.5 18.5t-20.5 45.5z" />
<glyph unicode="?" horiz-adv-x="815" d="M47 1366q0 25 23.5 52.5t65.5 51t99.5 39t124.5 15.5q96 0 169 -29t121 -78t73 -115.5t25 -142.5q0 -96 -32 -167.5t-76 -126t-90 -95.5t-75 -74q-27 -29 -41 -58.5t-21 -66t-8.5 -83t-1.5 -103.5q0 -47 -55 -47q-25 0 -40 12t-15 47q0 86 7 144.5t18.5 98.5t27.5 66.5 t35 47.5q33 35 76 70.5t82 81.5t65.5 104.5t26.5 138.5q0 123 -71 192.5t-206 69.5q-68 0 -108.5 -15.5t-67 -35t-43 -34.5t-37.5 -15q-16 0 -33.5 14t-17.5 41zM254 82q0 41 27.5 68.5t66.5 27.5t66.5 -27.5t27.5 -68.5q0 -37 -26.5 -65.5t-67.5 -28.5t-67.5 28.5 t-26.5 65.5z" />
<glyph unicode="@" horiz-adv-x="1466" d="M109 444q0 143 36.5 271.5t114.5 222.5t200 149.5t292 55.5q305 0 467.5 -170t162.5 -490q0 -82 -12 -156.5t-42 -133t-77 -93t-116 -34.5q-78 0 -132.5 39.5t-66.5 93.5q-53 -55 -108.5 -85t-143.5 -30q-53 0 -99 12.5t-81 38t-55.5 68.5t-20.5 104q0 70 27.5 115 t80 70.5t127 36t166.5 10.5h89v39q0 90 -48.5 132t-152.5 42q-49 0 -81 -8.5t-53.5 -17.5t-34.5 -17.5t-26 -8.5q-20 0 -31.5 21t-11.5 37q0 20 23.5 38.5t60.5 33t83 21.5t91 7q135 0 213 -67.5t78 -194.5v-340q6 -47 40 -74.5t75 -27.5q43 0 69.5 30.5t42 76.5t20.5 102.5 t5 105.5q0 270 -130 421.5t-402 151.5q-154 0 -256.5 -49t-166 -132t-90 -190.5t-26.5 -224.5q0 -109 24.5 -210t80 -178.5t146.5 -125t226 -47.5q68 0 115 10.5t80.5 21.5t56.5 21.5t37 10.5q20 0 31.5 -16.5t11.5 -28.5q0 -23 -32 -43.5t-82 -35.5t-111.5 -25.5 t-120.5 -10.5q-111 0 -212.5 39t-179 119t-124.5 203.5t-47 293.5zM543 307q0 -72 45 -102.5t110 -30.5q51 0 92 15.5t71 40t45.5 54t15.5 58.5v113h-84q-63 0 -117.5 -5.5t-93.5 -20.5t-61.5 -44t-22.5 -78z" />
<glyph unicode="A" horiz-adv-x="1105" d="M43 57q0 10 2 15l428 1390q8 25 30.5 36t49.5 11q29 0 51.5 -12t30.5 -35l426 -1390q0 -4 1 -6.5t1 -6.5q0 -25 -26.5 -42t-55.5 -17q-39 0 -51 35l-94 315h-568l-94 -315q-4 -18 -19.5 -26.5t-33.5 -8.5q-27 0 -52.5 15.5t-25.5 41.5zM303 467h498l-248 825z" />
<glyph unicode="B" horiz-adv-x="1101" d="M156 51v1395q0 27 19.5 39t41.5 12h336q86 0 162 -13.5t133 -52t90 -106.5t33 -176q0 -129 -48.5 -216t-125.5 -122q47 -18 86 -47t66.5 -70t43 -99t15.5 -136v-37q0 -117 -32 -198t-86 -130t-128 -71.5t-160 -22.5h-385q-29 0 -45 15.5t-16 35.5zM289 125h297 q135 0 210.5 71.5t75.5 231.5v35q0 160 -75.5 225.5t-210.5 65.5h-297v-629zM289 870h268q141 0 210 58.5t69 206.5q0 70 -21.5 115.5t-59.5 73.5t-90.5 38t-115.5 10h-260v-502z" />
<glyph unicode="C" horiz-adv-x="1071" d="M139 426v635q0 119 35 202t93.5 135t136 75.5t165.5 23.5q100 0 179 -27.5t132.5 -74.5t82 -108.5t28.5 -131.5q0 -51 -16.5 -66.5t-50.5 -15.5q-35 0 -50.5 14t-17.5 37q-2 33 -12 76t-41 81t-86 64.5t-148 26.5q-143 0 -219 -75.5t-76 -235.5v-635q0 -162 77 -237.5 t227 -75.5q92 0 145 25.5t80.5 63.5t38 82t14.5 81q6 53 68 53q35 0 51 -16.5t16 -67.5q0 -70 -28.5 -132.5t-84 -110.5t-135 -75.5t-180.5 -27.5q-86 0 -163.5 23.5t-135 75.5t-91.5 135t-34 204z" />
<glyph unicode="D" horiz-adv-x="1146" d="M156 51v1397q0 20 16 34.5t45 14.5h363q90 0 167.5 -23.5t136 -75.5t91.5 -135t33 -202v-623q0 -121 -33 -203.5t-91.5 -135t-136 -76t-167.5 -23.5h-363q-29 0 -45 15.5t-16 35.5zM291 125h289q137 0 214.5 77t77.5 236v623q0 160 -77.5 235.5t-214.5 75.5h-289v-1247z " />
<glyph unicode="E" horiz-adv-x="1040" d="M156 53v1393q0 27 19.5 39t41.5 12h729q29 0 40 -18.5t11 -40.5q0 -27 -13 -46.5t-38 -19.5h-655v-563h321q25 0 38.5 -18.5t13.5 -42.5q0 -20 -11.5 -38t-40.5 -18h-321v-567h655q25 0 38 -19.5t13 -44.5q0 -23 -11 -42t-40 -19h-729q-23 0 -42 13.5t-19 39.5z" />
<glyph unicode="F" horiz-adv-x="1011" d="M156 51v1395q0 27 19.5 39t41.5 12h725q27 0 39 -18.5t12 -40.5q0 -27 -13 -46.5t-38 -19.5h-651v-563h323q23 0 36.5 -18.5t13.5 -42.5q0 -20 -11.5 -38t-38.5 -18h-323v-641q0 -27 -21.5 -39t-46.5 -12q-27 0 -47 12.5t-20 38.5z" />
<glyph unicode="G" horiz-adv-x="1107" d="M139 426v635q0 119 33 202t90 135t134 75.5t167 23.5q98 0 177 -26.5t135.5 -73.5t86 -112.5t29.5 -141.5q0 -41 -18.5 -55.5t-48.5 -14.5q-27 0 -46.5 11t-21.5 40q-14 119 -85 183.5t-206 64.5q-137 0 -214 -75.5t-77 -235.5v-635q0 -160 77 -236.5t214 -76.5t214 76.5 t77 236.5v244h-274q-23 0 -36.5 18.5t-13.5 40.5q0 23 13.5 40t36.5 17h360q25 0 37 -15t12 -38v-307q0 -121 -32.5 -204t-90 -135t-135.5 -75.5t-168 -23.5t-168 23.5t-135 75.5t-90 135t-33 204z" />
<glyph unicode="H" horiz-adv-x="1173" d="M156 53v1395q0 27 20.5 38t46.5 11q25 0 46.5 -11t21.5 -38v-612h592v612q0 27 20.5 38t46.5 11q25 0 46.5 -11t21.5 -38v-1395q0 -27 -21.5 -40t-46.5 -13q-27 0 -47 13.5t-20 39.5v666h-592v-666q0 -27 -21.5 -40t-46.5 -13q-27 0 -47 13.5t-20 39.5z" />
<glyph unicode="I" horiz-adv-x="446" d="M156 53v1395q0 27 20.5 38t46.5 11q25 0 46.5 -11t21.5 -38v-1395q0 -27 -21.5 -40t-46.5 -13q-27 0 -47 13.5t-20 39.5z" />
<glyph unicode="J" horiz-adv-x="1048" d="M47 348q0 41 17.5 55.5t48.5 14.5q27 0 48 -12.5t21 -40.5q0 -117 79 -184.5t212 -67.5q137 0 214 76.5t77 236.5v946h-289q-25 0 -38 19.5t-13 46.5q0 23 12.5 41t38.5 18h361q25 0 44 -12t19 -39v-1020q0 -121 -32.5 -204t-90 -135t-134.5 -75.5t-165 -23.5 q-98 0 -178 26.5t-135 74.5t-86 114.5t-31 144.5z" />
<glyph unicode="K" horiz-adv-x="1069" d="M156 53v1395q0 27 20.5 38t46.5 11q25 0 46.5 -11t21.5 -38v-725l592 754q14 20 43 20q25 0 49 -21.5t24 -48.5q0 -6 -2 -14t-8 -16l-440 -547l504 -758q8 -16 8 -26q0 -29 -24.5 -49.5t-53.5 -20.5q-31 0 -51 31l-473 710l-168 -213v-471q0 -27 -21.5 -40t-46.5 -13 q-27 0 -47 13.5t-20 39.5z" />
<glyph unicode="L" horiz-adv-x="948" d="M156 53v1395q0 27 20.5 38t46.5 11q25 0 46.5 -11t21.5 -38v-1323h583q23 0 34.5 -19.5t11.5 -42.5q0 -25 -11.5 -44t-34.5 -19h-657q-23 0 -42 13.5t-19 39.5z" />
<glyph unicode="M" horiz-adv-x="1368" d="M156 53v1379q0 37 20.5 51t46.5 14q37 0 62.5 -27.5t46.5 -66.5l352 -680l352 680q20 39 46 66.5t63 27.5q29 0 48 -14.5t19 -50.5v-1379q0 -27 -20.5 -40t-46.5 -13q-25 0 -46.5 13.5t-21.5 39.5v1151l-340 -643q-23 -43 -55 -43q-31 0 -53 43l-338 649v-1157 q0 -27 -21.5 -40t-46.5 -13q-27 0 -47 13.5t-20 39.5z" />
<glyph unicode="N" horiz-adv-x="1173" d="M156 53v1393q0 29 20.5 40t46.5 11q37 0 61.5 -27.5t45.5 -66.5l553 -1090v1135q0 27 20.5 38t46.5 11q25 0 46.5 -11t21.5 -38v-1395q0 -27 -21.5 -40t-46.5 -13q-29 0 -51 23.5t-39 54.5l-569 1108v-1133q0 -27 -21.5 -40t-46.5 -13q-27 0 -47 13.5t-20 39.5z" />
<glyph unicode="O" d="M139 426v635q0 119 33 202t90 135t135 75.5t168 23.5t168 -23.5t135.5 -75.5t90 -135t32.5 -202v-635q0 -121 -32.5 -204t-90 -135t-135.5 -75.5t-168 -23.5t-168 23.5t-135 75.5t-90 135t-33 204zM274 426q0 -162 77 -237.5t214 -75.5t214 75.5t77 237.5v635 q0 160 -77 235.5t-214 75.5t-214 -75.5t-77 -235.5v-635z" />
<glyph unicode="P" horiz-adv-x="1079" d="M156 53v1395q0 45 57 49h377q88 0 166 -23.5t134 -74.5t89 -134t33 -202v-21q0 -119 -33 -201.5t-90.5 -135t-135 -76t-167.5 -23.5h-295v-553q0 -27 -21.5 -40t-46.5 -13q-27 0 -47 13.5t-20 39.5zM291 723h295q137 0 214 77t77 236v25q0 160 -77 235.5t-214 75.5h-295 v-649z" />
<glyph unicode="Q" d="M139 426v635q0 119 33 202t90 135t135 75.5t168 23.5t168 -23.5t135.5 -75.5t90 -135t32.5 -202v-635q0 -111 -28.5 -190.5t-77.5 -132t-118 -80t-149 -33.5v-162q0 -27 -16.5 -39t-34.5 -12q-20 0 -36.5 12t-16.5 39v162q-80 6 -148.5 32.5t-118.5 79t-79 132t-29 192.5 zM274 426q0 -145 62.5 -220t177.5 -87v151q0 27 16.5 38t36.5 11q18 0 34.5 -11t16.5 -38v-151q113 14 175.5 88t62.5 219v635q0 160 -77 235.5t-214 75.5t-214 -75.5t-77 -235.5v-635z" />
<glyph unicode="R" horiz-adv-x="1083" d="M156 53v1395q0 45 51 49h362q90 0 170 -19.5t140.5 -66.5t96.5 -125t36 -192q0 -96 -24.5 -165t-67.5 -117t-101.5 -74.5t-126.5 -39.5l316 -606q8 -10 8 -26q0 -27 -24.5 -48.5t-53.5 -21.5q-25 0 -42 23.5t-30 48.5l-315 614h-260v-629q0 -27 -21.5 -40t-46.5 -13 q-27 0 -47 13.5t-20 39.5zM291 799h278q137 0 222.5 66.5t85.5 221.5q0 154 -85 219.5t-223 65.5h-278v-573z" />
<glyph unicode="S" horiz-adv-x="1011" d="M74 207q0 25 19.5 50.5t41.5 25.5q20 0 41 -27t57.5 -58.5t96 -58t155.5 -26.5q143 0 224.5 70.5t81.5 211.5q0 113 -50.5 177.5t-126 104.5t-164 68.5t-164 71.5t-125.5 115t-50 196q0 113 41 184.5t104 113.5t140 58.5t149 16.5q57 0 118.5 -9t111.5 -25.5t82 -40 t32 -50.5q0 -20 -15.5 -48t-44.5 -28q-14 0 -35.5 12.5t-54 27t-81 26.5t-115.5 12q-57 0 -110.5 -11t-95.5 -39t-66.5 -74t-24.5 -113q0 -94 50 -146.5t126 -87.5t164 -63.5t163.5 -78.5t126 -133t50.5 -224q0 -109 -32 -189t-89 -132t-137 -76.5t-174 -24.5 q-98 0 -176 24.5t-132.5 58t-83 71.5t-28.5 67z" />
<glyph unicode="T" horiz-adv-x="985" d="M31 1434q0 23 12 43t39 20h821q27 0 39 -19.5t12 -41.5q0 -25 -12 -45.5t-39 -20.5h-342v-1317q0 -27 -21.5 -40t-45.5 -13q-27 0 -47.5 13.5t-20.5 39.5v1317h-344q-25 0 -38 19.5t-13 44.5z" />
<glyph unicode="U" horiz-adv-x="1159" d="M150 426v1022q0 27 21.5 38t45.5 11q27 0 47.5 -11t20.5 -38v-1022q0 -160 77.5 -236.5t217.5 -76.5q139 0 216.5 76.5t77.5 236.5v1022q0 27 20.5 38t47.5 11q25 0 46.5 -11t21.5 -38v-1022q0 -121 -34 -204t-92.5 -135t-136 -75.5t-167.5 -23.5t-169 23.5t-137.5 75.5 t-91 135t-32.5 204z" />
<glyph unicode="V" horiz-adv-x="1101" d="M41 1440q0 27 25.5 42t52.5 15q18 0 33.5 -8t19.5 -27l379 -1257l377 1257q12 35 51 35q29 0 55.5 -17.5t26.5 -41.5q0 -4 -1 -6t-1 -7l-426 -1388q-8 -25 -30.5 -37t-51.5 -12q-27 0 -49.5 11t-30.5 38l-428 1388q-2 4 -2 15z" />
<glyph unicode="W" horiz-adv-x="1611" d="M45 1442q0 25 24.5 40t53.5 15q18 0 33.5 -9t19.5 -26l354 -1257l205 764q6 27 26.5 37t45.5 10t43 -10.5t27 -36.5l204 -764l355 1257q4 16 19 25.5t34 9.5q29 0 53.5 -15.5t24.5 -39.5q0 -10 -2 -17l-402 -1388q-8 -25 -30.5 -37t-51.5 -12q-27 0 -50 11t-30 38 l-194 723l-195 -723q-6 -25 -28.5 -37t-51.5 -12t-51 11t-30 38l-404 1388q-2 6 -2 17z" />
<glyph unicode="X" horiz-adv-x="991" d="M49 63q0 16 8 33l353 654l-347 649q-12 20 -12 43q0 27 24.5 43t55.5 16q25 0 41 -23.5t29 -45.5l295 -564l295 564q12 23 28.5 46t40.5 23q31 0 55.5 -16.5t24.5 -42.5q0 -23 -12 -43l-348 -649l354 -654q8 -16 8 -33q0 -29 -25.5 -48t-54.5 -19q-23 0 -38 21.5 t-25 43.5l-303 574l-303 -574q-10 -23 -25.5 -44t-38.5 -21q-29 0 -54.5 19.5t-25.5 47.5z" />
<glyph unicode="Y" horiz-adv-x="1087" d="M39 1440q0 27 24.5 42t49.5 15q33 0 53 -41l377 -747l379 747q20 41 53 41q25 0 49.5 -15.5t24.5 -41.5q0 -6 -2.5 -16.5t-6.5 -20.5l-426 -813q-4 -12 -4 -17v-520q0 -27 -20.5 -40t-46.5 -13q-25 0 -46.5 13.5t-21.5 39.5v520q0 10 -2 17l-424 813q-6 10 -8 20.5 t-2 16.5z" />
<glyph unicode="Z" horiz-adv-x="991" d="M49 47q0 23 12 47l682 1278h-618q-25 0 -38 19.5t-13 44.5q0 23 12 42t39 19h743q27 0 39.5 -12t12.5 -31q0 -25 -17 -53l-680 -1276h670q27 0 39 -19.5t12 -42.5t-12 -43t-39 -20h-795q-23 0 -36 13.5t-13 33.5z" />
<glyph unicode="[" horiz-adv-x="620" d="M139 8v1514q0 23 18.5 37t43.5 14h329q23 0 37.5 -18.5t14.5 -41.5q0 -27 -14.5 -45t-37.5 -18h-256v-1370h256q23 0 37.5 -18.5t14.5 -43.5q0 -23 -14.5 -42t-37.5 -19h-329q-23 0 -42.5 13.5t-19.5 37.5z" />
<glyph unicode="\" horiz-adv-x="708" d="M47 1479.5v9.5q0 25 17.5 40t39.5 15q33 0 46 -28l509 -1448q2 -6 3 -17q0 -23 -16.5 -37t-39.5 -14q-16 0 -29.5 8t-19.5 27l-508 1435q-2 4 -2 9.5z" />
<glyph unicode="]" horiz-adv-x="620" d="M39 18q0 25 13.5 43.5t35.5 18.5h258v1370h-258q-23 0 -36 18.5t-13 44.5q0 23 13.5 41.5t35.5 18.5h330q25 0 44 -14.5t19 -36.5v-1514q0 -25 -20.5 -38t-42.5 -13h-330q-23 0 -36 19.5t-13 41.5z" />
<glyph unicode="^" horiz-adv-x="548" d="M0 1266q0 12 6 24.5t21 20.5l213 114q16 10 34 11q18 0 35 -11l213 -114q14 -6 20.5 -19.5t6.5 -27.5q0 -20 -12.5 -35t-28.5 -15q-4 0 -10 2.5t-11 4.5l-213 112l-213 -114l-9 -4.5t-9 -2.5q-16 0 -29.5 15.5t-13.5 38.5z" />
<glyph unicode="_" horiz-adv-x="688" d="M-35 -61q0 27 14.5 44t36.5 17h656q20 0 35.5 -17.5t15.5 -43.5q0 -27 -15.5 -42.5t-35.5 -15.5h-656q-51 1 -51 58z" />
<glyph unicode="`" horiz-adv-x="317" d="M0 1378q0 20 13.5 39t35.5 19q8 0 19 -6l227 -125q23 -12 22 -37q0 -23 -15 -40.5t-38 -17.5q-12 0 -20 7l-217 116q-27 12 -27 45z" />
<glyph unicode="a" horiz-adv-x="897" d="M61 256q0 84 35 138.5t97.5 86t150.5 44t195 12.5h104v49q0 49 -13.5 98t-42 89t-74.5 65.5t-112 25.5q-51 0 -86.5 -9t-61.5 -20.5t-42 -20.5t-29 -9q-27 0 -40 24.5t-13 47.5q0 20 24.5 38.5t64.5 33t89.5 23.5t98.5 9q102 0 172.5 -33t114.5 -88t63.5 -126.5 t19.5 -147.5v-533q0 -23 -18.5 -38t-46.5 -15q-27 0 -44.5 15.5t-17.5 37.5v90q-53 -61 -129 -109t-180 -48q-59 0 -109.5 16t-88.5 50t-59.5 84t-21.5 120zM195 268q0 -90 51 -130t127 -40q49 0 97 20.5t87 52.5t62.5 70t23.5 72v131h-86q-72 0 -136.5 -5t-115.5 -23.5 t-80.5 -53t-29.5 -94.5z" />
<glyph unicode="b" horiz-adv-x="991" d="M129 53v1460q0 23 18.5 36.5t47.5 13.5t48 -13.5t19 -36.5v-688q35 59 102.5 107.5t170.5 48.5q76 0 142 -29.5t116.5 -82t79 -122t28.5 -149.5v-223q0 -76 -29.5 -146.5t-80 -124t-116 -86t-136.5 -32.5q-96 0 -172 47t-109 110v-90q0 -20 -18.5 -36.5t-44.5 -16.5 q-29 0 -47.5 16.5t-18.5 36.5zM262 311q0 -23 19.5 -57.5t53.5 -67t80 -55t99 -22.5q51 0 97 22.5t81 59t55.5 85t20.5 99.5v223q0 49 -20.5 96t-55.5 83t-81 58.5t-99 22.5q-47 0 -91 -17.5t-80 -51t-57.5 -82t-21.5 -109.5v-287z" />
<glyph unicode="c" horiz-adv-x="841" d="M94 375v219q0 82 23.5 152.5t72 123t123 82t176.5 29.5q66 0 119.5 -13.5t91 -33t58 -43t20.5 -43.5q0 -23 -17.5 -44.5t-41.5 -21.5q-14 0 -29.5 12.5t-40 26t-61.5 25.5t-92 12q-135 0 -202 -70.5t-67 -193.5v-219q0 -125 67.5 -195.5t203.5 -70.5q59 0 97 12 t62.5 26.5t40 26.5t31.5 12q29 0 45.5 -21.5t16.5 -43.5q0 -20 -21.5 -44t-60.5 -44.5t-94 -33.5t-123 -13q-102 0 -177 29.5t-124.5 82t-73 123t-23.5 154.5z" />
<glyph unicode="d" horiz-adv-x="991" d="M92 375v223q0 80 29 149.5t79 122t116.5 82t142.5 29.5q102 0 169.5 -48t100.5 -108v688q0 23 20.5 36.5t49.5 13.5t46 -13.5t17 -36.5v-1460q0 -20 -17.5 -36.5t-45.5 -16.5q-27 0 -45.5 16.5t-18.5 36.5v90q-35 -63 -109.5 -110t-170.5 -47q-74 0 -139.5 32.5 t-114.5 86t-79 124t-30 146.5zM225 375q0 -51 20.5 -99.5t55.5 -85t81 -59t97 -22.5q53 0 99.5 22.5t80 55t52 67.5t18.5 57v287q0 61 -21.5 109.5t-56.5 82t-80 51t-90 17.5q-53 0 -99 -22.5t-81 -58.5t-55.5 -83t-20.5 -96v-223z" />
<glyph unicode="e" horiz-adv-x="937" d="M92 375v229q0 76 31 144.5t84 121t124.5 82t151.5 29.5q76 0 145.5 -27.5t122 -77t84 -118t31.5 -150.5q0 -59 -15 -92t-40 -49t-57.5 -19.5t-65.5 -3.5h-463v-75q0 -123 88 -195t224 -72q61 0 100 12.5t65.5 28t45 28.5t34.5 13q25 0 41.5 -22.5t16.5 -40.5t-21.5 -42 t-61.5 -44.5t-96.5 -34.5t-128.5 -14q-96 0 -177 27.5t-139 78.5t-91 123t-33 160zM225 543h410q61 0 81.5 13t20.5 56q0 49 -18.5 95.5t-52 83t-80.5 58t-105 21.5q-53 0 -99 -19.5t-81 -53t-55.5 -79.5t-20.5 -97v-78z" />
<glyph unicode="f" horiz-adv-x="624" d="M129 51v1135q0 78 29.5 146.5t79 119.5t116 81t140.5 30h51q27 0 42 -18.5t15 -43.5q0 -23 -15.5 -41t-41.5 -18h-35q-53 0 -98 -20.5t-78 -54.5t-52.5 -78t-19.5 -93v-227h293q23 0 35 -16.5t12 -37.5q0 -23 -12 -40t-35 -17h-293v-807q0 -23 -20.5 -37t-48.5 -14 q-27 0 -45.5 14.5t-18.5 36.5z" />
<glyph unicode="g" horiz-adv-x="925" d="M51 -203q0 45 14.5 80t39 62.5t56.5 48t64 32.5q-49 16 -80.5 48t-31.5 94q0 57 27.5 90t74.5 57q-53 45 -83 111.5t-30 146.5v78q0 74 25 135.5t71 106.5t111.5 69.5t145.5 24.5q72 0 133 -22.5t106 -63.5q31 61 71 95t75 34q31 0 46 -17.5t15 -35.5t-10 -29.5 t-25 -15.5q-25 -4 -55.5 -22.5t-58.5 -65.5q29 -39 43 -89.5t14 -103.5v-78q0 -74 -26.5 -135t-73.5 -107t-112.5 -72t-143.5 -26q-84 0 -158 35q-23 -12 -43.5 -29.5t-20.5 -50.5q0 -47 47.5 -65.5t118 -28.5t153.5 -18.5t153.5 -34t117.5 -76.5t47 -143 q0 -72 -29.5 -126.5t-83 -91t-127 -55t-161.5 -18.5q-90 0 -166 18.5t-131 54t-87 86t-32 113.5zM180 -190q0 -84 76 -135.5t209 -51.5q129 0 201.5 51.5t72.5 137.5q0 63 -41 97t-99 50t-122.5 21.5t-114.5 11.5q-72 -23 -127 -66t-55 -116zM231 569q0 -104 59.5 -172.5 t166.5 -68.5q104 0 162.5 67.5t58.5 171.5v78q0 100 -58.5 168t-164.5 68t-165 -68t-59 -168v-76z" />
<glyph unicode="h" horiz-adv-x="1015" d="M129 53v1460q0 23 18.5 36.5t47.5 13.5t48 -13.5t19 -36.5v-688q33 59 100.5 107.5t169.5 48.5q74 0 139.5 -29.5t116 -82t79 -122t28.5 -149.5v-545q0 -27 -20.5 -40t-47.5 -13q-23 0 -44 13.5t-21 39.5v545q0 49 -20.5 96t-54.5 83t-81 58.5t-98 22.5q-45 0 -89 -17.5 t-79 -51t-56.5 -82t-21.5 -109.5v-545q0 -20 -19.5 -36.5t-47.5 -16.5q-29 0 -47.5 16.5t-18.5 36.5z" />
<glyph unicode="i" horiz-adv-x="391" d="M102 1341q0 35 27 59.5t66 24.5q37 0 62.5 -24.5t25.5 -59.5t-26 -60.5t-62 -25.5q-39 0 -66 26t-27 60zM129 53v867q0 23 18.5 36t47.5 13t48 -13.5t19 -35.5v-867q0 -20 -19.5 -36.5t-47.5 -16.5q-29 0 -47.5 16.5t-18.5 36.5z" />
<glyph unicode="j" horiz-adv-x="391" d="M-76 -416q0 29 16.5 45.5t41.5 16.5q49 0 77.5 20.5t44 55t20.5 84t5 106.5v1008q0 23 18.5 36t47.5 13t48 -13.5t19 -35.5v-1008q0 -86 -15.5 -156.5t-47 -122t-82.5 -80t-125 -28.5q-37 0 -52.5 18.5t-15.5 40.5zM102 1341q0 35 27 59.5t66 24.5q37 0 62.5 -24.5 t25.5 -59.5t-26 -60.5t-62 -25.5q-39 0 -66 26t-27 60z" />
<glyph unicode="k" horiz-adv-x="933" d="M129 53v1460q0 23 18.5 36.5t47.5 13.5t48 -13.5t19 -36.5v-997l500 445q8 4 15 8t16 4q25 0 46 -18.5t21 -45.5q0 -10 -2 -19t-12 -18l-301 -264l354 -518q8 -16 8 -29q0 -23 -22.5 -45t-48.5 -22q-27 0 -41 24l-344 506l-189 -166v-305q0 -20 -19.5 -36.5t-47.5 -16.5 q-29 0 -47.5 16.5t-18.5 36.5z" />
<glyph unicode="l" horiz-adv-x="423" d="M145 53v1460q0 23 18.5 36.5t47.5 13.5t48.5 -13.5t19.5 -36.5v-1460q0 -20 -19.5 -36.5t-48.5 -16.5t-47.5 16.5t-18.5 36.5z" />
<glyph unicode="m" horiz-adv-x="1597" d="M129 53v867q0 23 18.5 36t47.5 13q27 0 45 -13.5t18 -35.5v-95q35 59 102.5 107.5t169.5 48.5t178 -56.5t113 -148.5q53 104 137 154.5t175 50.5q66 0 128 -25.5t110 -75t77 -120t29 -162.5v-545q0 -20 -19.5 -36.5t-48.5 -16.5q-27 0 -46.5 16.5t-19.5 36.5v545 q0 63 -20 112.5t-54 82t-75 49t-84 16.5q-45 0 -88 -17.5t-77 -50t-54.5 -79.5t-20.5 -105v-555q0 -29 -21.5 -40t-45.5 -11q-23 0 -44.5 11.5t-21.5 39.5v553q0 55 -18.5 101.5t-50 80t-74.5 53t-90 19.5q-45 0 -88 -17.5t-77 -50t-55.5 -82t-21.5 -110.5v-545 q0 -20 -19.5 -36.5t-47.5 -16.5q-29 0 -47.5 16.5t-18.5 36.5z" />
<glyph unicode="n" horiz-adv-x="1015" d="M129 53v867q0 23 18.5 36t47.5 13q25 0 43 -13.5t18 -35.5v-95q33 59 101.5 107.5t172.5 48.5q74 0 140.5 -29.5t116 -82t79 -122t29.5 -149.5v-545q0 -27 -21.5 -40t-46.5 -13q-23 0 -44 13.5t-21 39.5v545q0 49 -20.5 96t-55.5 83t-81 58.5t-99 22.5q-45 0 -89 -17.5 t-78 -51t-55.5 -82t-21.5 -109.5v-545q0 -20 -19.5 -36.5t-47.5 -16.5q-29 0 -47.5 16.5t-18.5 36.5z" />
<glyph unicode="o" horiz-adv-x="958" d="M90 375v223q0 76 31 145.5t83 123t122.5 84t150.5 30.5q78 0 148.5 -29.5t125 -82t86 -122t31.5 -149.5v-223q0 -76 -31.5 -146.5t-86 -124t-125 -86t-148.5 -32.5t-147.5 31.5t-122.5 86t-85 124t-32 147.5zM223 375q0 -51 19.5 -99.5t54.5 -85t81 -59t99 -22.5 t100.5 22.5t82 59t55 85t20.5 99.5v223q0 49 -20.5 96t-55 83t-82 58.5t-100.5 22.5t-100 -22.5t-81 -58.5t-53.5 -83t-19.5 -96v-223z" />
<glyph unicode="p" horiz-adv-x="991" d="M129 -424v1344q0 23 18.5 36t47.5 13q27 0 45 -13.5t18 -35.5v-95q35 59 103.5 107.5t170.5 48.5q76 0 143.5 -29.5t118 -82t79 -122t28.5 -149.5v-223q0 -76 -29.5 -146.5t-80 -124t-116 -86t-136.5 -32.5q-94 0 -168 47t-109 110v-567q0 -18 -19.5 -34.5t-47.5 -16.5 q-29 0 -47.5 16.5t-18.5 34.5zM262 311q0 -23 18.5 -57.5t52.5 -67t80 -55t101 -22.5q51 0 97 22.5t81 59t55.5 85t20.5 99.5v223q0 49 -20.5 96t-55.5 83t-82 58.5t-100 22.5q-47 0 -91 -17.5t-79 -51t-56.5 -82t-21.5 -109.5v-287z" />
<glyph unicode="q" horiz-adv-x="991" d="M92 375v223q0 80 29 149.5t79 122t117.5 82t143.5 29.5q102 0 170.5 -48t103.5 -108v95q0 23 17.5 36t46.5 13t46 -13.5t17 -35.5v-1344q0 -18 -17.5 -34.5t-45.5 -16.5q-29 0 -49.5 16.5t-20.5 34.5v567q-33 -63 -107.5 -110t-166.5 -47q-74 0 -139.5 32.5t-114.5 86 t-79 124t-30 146.5zM225 375q0 -51 20.5 -99.5t55.5 -85t81 -59t97 -22.5q53 0 99.5 22.5t80 55t52 67.5t18.5 57v287q0 61 -21.5 109.5t-56.5 82t-80 51t-90 17.5q-53 0 -99 -22.5t-81 -58.5t-55.5 -83t-20.5 -96v-223z" />
<glyph unicode="r" horiz-adv-x="677" d="M129 53v867q0 23 18.5 36t47.5 13q27 0 45 -13.5t18 -35.5v-101q35 61 104.5 111.5t169.5 50.5h72q23 0 38 -18.5t15 -42.5q0 -25 -15 -43.5t-38 -18.5h-72q-51 0 -99 -20.5t-86 -59.5t-61.5 -94t-23.5 -125v-506q0 -20 -19.5 -36.5t-47.5 -16.5q-29 0 -47.5 16.5 t-18.5 36.5z" />
<glyph unicode="s" horiz-adv-x="788" d="M68 133q0 20 13 41t34 21q16 0 34.5 -15.5t48 -33t73.5 -33t114 -15.5q117 0 164 43t47 103q0 68 -38 104.5t-93 59t-122 40t-122 46t-93 75.5t-38 133q0 49 17.5 98.5t56.5 89.5t100.5 65.5t149.5 25.5q51 0 100 -9t88 -22.5t62.5 -32t23.5 -36.5q0 -16 -15.5 -43 t-39.5 -27q-12 0 -30.5 9t-45.5 19.5t-61.5 19.5t-79.5 9q-57 0 -96 -15t-64 -38.5t-35 -52.5t-10 -53q0 -59 38 -90t94 -50.5t121.5 -37t122 -49t94.5 -86t38 -146.5q0 -123 -86 -193.5t-244 -70.5q-72 0 -131 14t-101 35.5t-65.5 48.5t-23.5 49z" />
<glyph unicode="t" horiz-adv-x="608" d="M125 301v1079q0 23 21.5 36.5t43.5 13.5q25 0 46.5 -13.5t21.5 -36.5v-411h264q20 0 33.5 -16.5t13.5 -39.5t-13 -39t-34 -16h-264v-557q0 -100 42 -140t149 -40h57q29 0 45 -18.5t16 -41.5q0 -25 -16 -43t-45 -18h-57q-160 0 -242 70.5t-82 230.5z" />
<glyph unicode="u" horiz-adv-x="1015" d="M119 371v547q0 18 19.5 34.5t47.5 16.5q27 0 46.5 -16.5t19.5 -34.5v-547q0 -49 19.5 -96.5t54 -84t82 -59t100.5 -22.5t99 21.5t81 58t55.5 83.5t20.5 99v549q0 20 19.5 34.5t47.5 14.5q29 0 47.5 -14.5t18.5 -34.5v-549q0 -78 -30.5 -147.5t-84 -122t-124 -84 t-150.5 -31.5t-151.5 31.5t-124 85t-83 123t-30.5 145.5z" />
<glyph unicode="v" horiz-adv-x="860" d="M31 911q0 27 26.5 44.5t53.5 17.5q16 0 29.5 -7.5t19.5 -23.5l270 -737l270 729q6 16 15.5 27.5t32.5 11.5t52 -17.5t29 -42.5q0 -16 -8 -32l-329 -865q-6 -16 -22.5 -24t-39.5 -8t-39 8t-22 24l-330 865q-4 4 -6 14t-2 16z" />
<glyph unicode="w" horiz-adv-x="1366" d="M31 913q0 25 25.5 42.5t54.5 17.5q16 0 29.5 -7.5t17.5 -23.5l262 -729l211 666q10 34 51 34h2q18 0 32.5 -7t20.5 -27l203 -674l268 737q4 14 16.5 22.5t28.5 8.5q27 0 53.5 -15.5t26.5 -44.5q0 -18 -8 -30l-319 -867q-6 -18 -21.5 -25t-32.5 -7q-41 0 -55 30l-213 666 l-211 -655q-12 -41 -59 -41q-20 0 -33.5 8t-22.5 33l-319 858q-8 16 -8 30z" />
<glyph unicode="x" horiz-adv-x="839" d="M51 51q0 12 8 29l273 409l-266 398q-4 6 -7.5 12t-3.5 14q0 25 28 46.5t54 21.5q10 0 21.5 -4t19.5 -16l242 -375l244 375q6 10 17 15t21 5q25 0 53.5 -20.5t28.5 -47.5q0 -10 -10 -26l-268 -398l274 -409q8 -12 8 -29q0 -23 -25.5 -44t-53.5 -21q-27 0 -39 20l-250 383 l-248 -383q-14 -20 -43 -20q-23 0 -50.5 20t-27.5 45z" />
<glyph unicode="y" horiz-adv-x="860" d="M29 918q0 27 27.5 45t54.5 18q16 0 29.5 -6t17.5 -23l280 -753l264 753q12 29 46 29q25 0 53 -18.5t28 -47.5v-8t-4 -8l-317 -860q-31 -84 -66.5 -174t-85 -166t-114 -125t-150.5 -49q-27 0 -44 12t-17 47q0 23 9 42.5t32 19.5q49 0 94 31.5t84 86t69.5 126t49.5 151.5 l-334 858q-6 8 -6 19z" />
<glyph unicode="z" horiz-adv-x="821" d="M49 53q0 12 6 26.5t15 24.5l501 748h-452q-20 0 -34.5 17.5t-14.5 39.5q0 25 13 42.5t36 17.5h579q20 0 36 -14.5t16 -39.5q0 -27 -17 -49l-504 -747h496q20 0 34.5 -17.5t14.5 -44.5q0 -23 -13 -40t-36 -17h-621q-27 0 -41 16.5t-14 36.5z" />
<glyph unicode="{" horiz-adv-x="634" d="M61 788q0 31 19.5 41.5t42 14.5t42 11t19.5 34q0 14 -6 61t-13 103.5t-13.5 107.5t-6.5 76q0 68 31 128t83 106.5t121 74t146 27.5q37 0 53.5 -19.5t16.5 -42.5t-13.5 -41t-35.5 -18q-53 0 -101.5 -18.5t-85 -50t-58 -73.5t-21.5 -89q0 -23 6 -73t13 -105.5t13 -102.5 t6 -61q0 -37 -27.5 -62.5t-45.5 -30.5q20 -4 46.5 -27.5t26.5 -62.5q0 -18 -6 -75.5t-13 -125t-13 -129t-6 -87.5q0 -59 29.5 -97.5t70.5 -61t87 -31.5t79 -9q29 0 39 -20.5t10 -39.5q0 -31 -19.5 -46t-52.5 -15q-78 0 -146.5 22.5t-119.5 64.5t-82 99.5t-31 126.5 q0 16 3.5 51t7.5 78t9 89.5t9 87t7 70.5t3 40q0 27 -19.5 33t-42 10t-42 14t-19.5 43z" />
<glyph unicode="|" horiz-adv-x="413" d="M139 8v1516q0 20 19.5 34.5t48.5 14.5q27 0 47 -14.5t20 -34.5v-1516q0 -20 -20.5 -35.5t-46.5 -15.5q-29 0 -48.5 15.5t-19.5 35.5z" />
<glyph unicode="}" horiz-adv-x="634" d="M39 20q0 18 10 39t39 21q33 0 79 9t87 31.5t70.5 60.5t29.5 98q0 27 -6 88t-13 128.5t-13.5 125t-6.5 75.5q0 39 27 62.5t47 27.5q-18 4 -46 30t-28 63q0 14 6.5 61t13.5 102.5t13 105.5t6 73q0 47 -21.5 89t-58 73.5t-85 50t-101.5 18.5q-23 0 -36 18.5t-13 40.5 q0 23 16.5 42.5t53.5 19.5q76 0 145.5 -27.5t121.5 -74t82.5 -106.5t30.5 -128q0 -25 -6 -76t-13 -107.5t-13 -103.5t-6 -61q0 -27 19 -34t42 -11t42 -14.5t19 -41.5q0 -33 -19 -43t-42 -14t-42 -10t-19 -33q0 -10 3 -40t7 -70.5t9 -87t9 -89.5t7 -77.5t3 -51.5 q0 -70 -30.5 -127t-81.5 -99t-121 -64.5t-145 -22.5q-33 0 -52.5 15.5t-19.5 45.5z" />
<glyph unicode="~" horiz-adv-x="821" d="M94 498q0 29 18.5 50t46 36.5t59.5 22.5t56 7q39 0 72 -11t63.5 -23.5t62.5 -23.5t73 -11q35 0 56.5 9t35.5 20.5t25.5 20.5t25.5 9q20 0 30.5 -16.5t10.5 -30.5q0 -31 -18.5 -53.5t-45 -36.5t-56 -20.5t-52.5 -6.5q-41 0 -73.5 11.5t-62.5 24.5t-62.5 24.5t-73.5 11.5 q-33 0 -56.5 -10t-40 -22.5t-30 -23t-25.5 -10.5q-20 0 -29.5 17.5t-9.5 34.5z" />
<glyph unicode="&#xa1;" horiz-adv-x="417" d="M115 1430q0 37 26.5 65.5t67.5 28.5q39 0 65.5 -29t26.5 -65q0 -41 -26.5 -69t-65.5 -28q-41 0 -67.5 28t-26.5 69zM131 68q0 254 12.5 529t12.5 529q0 25 17 36.5t34 11.5q20 0 37.5 -11.5t17.5 -36.5q0 -254 12.5 -529t12.5 -529q0 -39 -22.5 -59.5t-57.5 -20.5 q-33 0 -54.5 20.5t-21.5 59.5z" />
<glyph unicode="&#xa2;" horiz-adv-x="845" d="M72 733v39q0 74 18.5 138.5t57 114.5t99 84t142.5 46v221q0 18 14.5 31.5t34.5 13.5t35.5 -13t15.5 -32v-219q57 -2 107.5 -13t87.5 -28.5t58.5 -40t21.5 -47.5q0 -23 -17.5 -43t-41.5 -20q-12 0 -27.5 11t-39.5 24.5t-58.5 24.5t-90.5 13v-571q55 2 90 13.5t59 25.5 t38 25.5t29 11.5q27 0 45 -20.5t18 -43.5q0 -25 -23.5 -48t-62.5 -41.5t-89 -30t-104 -13.5v-217q0 -18 -15 -32.5t-36 -14.5q-20 0 -34.5 14.5t-14.5 32.5v221q-162 23 -239.5 128.5t-77.5 254.5zM195 733q0 -106 47 -173.5t147 -88.5v563q-100 -23 -147 -90t-47 -172v-39z " />
<glyph unicode="&#xa3;" horiz-adv-x="997" d="M49 63q0 23 12.5 42.5t38.5 19.5h121l88 627h-155q-23 0 -35.5 15t-12.5 38t12.5 40t35.5 17h172l45 324q12 82 53 152.5t101.5 122.5t137 82t158.5 30h39q29 0 43.5 -19.5t14.5 -42.5t-14.5 -42t-43.5 -19h-49q-59 0 -112.5 -21.5t-94.5 -58.5t-67.5 -85t-32.5 -99 l-45 -324h305q23 0 33 -17.5t10 -39.5q0 -20 -10.5 -36.5t-32.5 -16.5h-322l-90 -627h518q23 0 35.5 -19.5t12.5 -42.5q0 -25 -12.5 -44t-35.5 -19h-770q-27 0 -39 19.5t-12 43.5z" />
<glyph unicode="&#xa4;" horiz-adv-x="978" d="M127 657q0 14 10 25l66 66q-74 96 -74 219t74 219l-53 53q-12 8 -13 27q0 16 14.5 29.5t30.5 13.5q14 0 25 -11l51 -51q47 41 107.5 64.5t126.5 23.5q63 0 120.5 -21.5t104.5 -60.5l55 56q10 10 27 10q16 0 29.5 -13.5t13.5 -29.5q0 -14 -13 -27l-55 -55 q39 -47 60.5 -104.5t21.5 -122.5q0 -63 -22.5 -122t-61.5 -106l57 -57q12 -12 13 -25q0 -16 -13.5 -29.5t-29.5 -13.5t-25 11l-57 55q-47 -41 -104.5 -63.5t-120.5 -22.5q-66 0 -125.5 24.5t-108.5 67.5l-63 -61q-10 -10 -25 -11q-16 0 -29.5 13.5t-13.5 29.5zM229 967 q0 -53 20.5 -101.5t56.5 -87.5t83 -61.5t103 -22.5q55 0 103 22.5t84 61.5t57.5 87.5t21.5 101.5q0 51 -20.5 99t-57.5 86t-85 60.5t-103 22.5t-103.5 -22.5t-83.5 -60.5t-55.5 -86t-20.5 -99z" />
<glyph unicode="&#xa5;" horiz-adv-x="1034" d="M49 1442q0 23 23.5 41t52.5 18q31 0 49 -35l338 -659l352 659q18 35 47 35q27 0 50.5 -18.5t23.5 -40.5q0 -8 -4 -21l-373 -678h213q20 0 35.5 -16t15.5 -39t-15 -38t-36 -15h-243v-150h243q20 0 35.5 -16t15.5 -39q0 -25 -15 -39t-36 -14h-243v-326q0 -23 -19.5 -37 t-46.5 -14q-29 0 -48.5 14.5t-19.5 36.5v326h-233q-23 0 -36 14.5t-13 36.5q0 25 13 41t36 16h233v150h-233q-23 0 -36 15t-13 38t13 39t36 16h201l-357 678q-6 8 -6 21z" />
<glyph unicode="&#xa6;" horiz-adv-x="415" d="M141 8v557q0 20 18.5 34.5t47.5 14.5t48 -14t19 -35v-557q0 -20 -19 -35.5t-48 -15.5t-47.5 15.5t-18.5 35.5zM141 967v557q0 20 18.5 34.5t47.5 14.5t48 -14.5t19 -34.5v-557q0 -20 -19 -36t-48 -16t-47.5 15.5t-18.5 36.5z" />
<glyph unicode="&#xa7;" horiz-adv-x="956" d="M100 203q0 35 17.5 48t44.5 13q35 0 48 -14t13 -35q0 -31 9.5 -71t36 -75.5t73.5 -60t121 -24.5q123 0 187.5 64.5t64.5 180.5q0 84 -44 131.5t-108.5 77t-141.5 53t-141.5 64.5t-108.5 109.5t-44 187.5v254q0 119 35 194.5t87 119.5t114.5 60.5t119.5 16.5 q82 0 143.5 -25.5t103.5 -69.5t62.5 -104.5t20.5 -130.5q0 -37 -17.5 -50t-41.5 -13q-61 0 -62 63q0 29 -8 66t-30.5 68.5t-62.5 54t-104 22.5q-43 0 -84 -13t-73.5 -43t-53 -79t-20.5 -121q0 -84 44 -130t109.5 -75.5t143.5 -54t143.5 -65.5t109.5 -110t44 -185v-250 q0 -106 -31 -180t-83 -120t-119.5 -67.5t-141.5 -21.5q-88 0 -157.5 27.5t-117.5 74.5t-74 108.5t-26 129.5zM248 838q0 -72 26.5 -119t68.5 -77t94 -49.5t106.5 -37.5t103.5 -42t84 -62v59q0 72 -25.5 118t-67.5 75.5t-95.5 49t-106.5 38t-103 42t-85 62.5v-57z" />
<glyph unicode="&#xa8;" horiz-adv-x="401" d="M0 1290q0 33 21.5 53.5t54.5 20.5q31 0 52.5 -20.5t21.5 -53.5q0 -31 -22 -53.5t-52 -22.5q-33 0 -54.5 23t-21.5 53zM252 1290q0 33 21.5 53.5t54.5 20.5t53 -20.5t20 -53.5q0 -31 -20.5 -53.5t-52.5 -22.5q-33 0 -54.5 23t-21.5 53z" />
<glyph unicode="&#xa9;" horiz-adv-x="1470" d="M106 733q0 172 59.5 298t152 209t205 123t218.5 40q109 0 219.5 -41t200.5 -123t146.5 -207t56.5 -291q0 -172 -59.5 -298t-151.5 -208.5t-204.5 -122.5t-219.5 -40q-109 0 -219.5 41t-200.5 122.5t-146.5 206.5t-56.5 291zM197 733q0 -125 37.5 -229.5t107.5 -180 t168 -118.5t219 -43q119 0 219.5 42t172 118.5t112.5 183t41 235.5q0 125 -38 229.5t-107.5 180.5t-168 119t-219.5 43q-119 0 -219 -42t-171.5 -119t-112.5 -183.5t-41 -235.5zM522 590v323q0 133 63.5 188.5t151.5 55.5q100 0 158.5 -55t58.5 -139q0 -35 -11 -45.5 t-36 -10.5q-49 0 -49 35q0 16 -4 37.5t-16.5 42t-35 34t-61.5 13.5q-121 0 -120 -156v-323q0 -156 120 -156q39 0 60.5 13.5t34 33t16.5 43t6 41.5q2 35 47 35q27 0 38 -11t11 -42q0 -86 -59 -143.5t-160 -57.5q-43 0 -82 13.5t-67.5 42t-46 74.5t-17.5 114z" />
<glyph unicode="&#xaa;" horiz-adv-x="643" d="M70 1055q0 53 21.5 89t61.5 56.5t96 28.5t124 8h63v27q0 29 -8 57.5t-24.5 52t-44 37.5t-66.5 14q-35 0 -57.5 -6t-39 -13t-26.5 -13.5t-18 -6.5q-20 0 -30.5 18.5t-10.5 37.5q0 14 17 27.5t44 23.5t59.5 16.5t63.5 6.5q68 0 115 -20.5t76.5 -56.5t43 -81t13.5 -94v-332 q0 -16 -15.5 -27.5t-38.5 -11.5q-20 0 -34.5 11t-14.5 28v51q-35 -41 -83 -69.5t-115 -28.5q-72 0 -122 40t-50 130zM176 1065q0 -51 30 -73.5t70 -22.5q29 0 57.5 12t51.5 31.5t37 43t14 46.5v67h-57q-41 0 -77 -4t-64.5 -14t-45 -31.5t-16.5 -54.5z" />
<glyph unicode="&#xab;" horiz-adv-x="833" d="M72 567q0 14 5 27.5t15 30.5l182 336q12 25 48 24q31 0 53 -21.5t22 -43.5q0 -10 -6 -23l-178 -330l178 -327q6 -12 6 -23q0 -23 -23.5 -44t-54.5 -21t-45 24l-182 336q-10 18 -15 29.5t-5 25.5zM424 567q0 14 5 25.5t15 32.5l183 336q12 25 47 24q31 0 53.5 -21.5 t22.5 -43.5q0 -10 -7 -23l-178 -330l178 -327q6 -12 7 -23q0 -23 -24 -44t-54 -21q-31 0 -45 24l-183 336q-10 18 -15 29.5t-5 25.5z" />
<glyph unicode="&#xac;" horiz-adv-x="993" d="M104 492q0 27 14.5 44t37.5 17h651q18 0 34.5 -17.5t16.5 -43.5v-312q0 -23 -18.5 -37t-46.5 -14q-29 0 -48.5 14.5t-19.5 36.5v254h-569q-52 1 -52 58z" />
<glyph unicode="&#xad;" horiz-adv-x="968" d="M106 492q0 27 14.5 44t37.5 17h655q20 0 35.5 -17.5t15.5 -43.5q0 -27 -15 -42.5t-36 -15.5h-655q-52 1 -52 58z" />
<glyph unicode="&#xae;" horiz-adv-x="1470" d="M106 733q0 172 59.5 298t152 209t205 123t218.5 40q109 0 219.5 -41t200.5 -123t146.5 -207t56.5 -291q0 -172 -59.5 -298t-151.5 -208.5t-204.5 -122.5t-219.5 -40q-109 0 -219.5 41t-200.5 122.5t-146.5 206.5t-56.5 291zM197 733q0 -125 37.5 -229.5t107.5 -180 t168 -118.5t219 -43q119 0 219.5 42t172 118.5t112.5 183t41 235.5q0 125 -38 229.5t-107.5 180.5t-168 119t-219.5 43q-119 0 -219 -42t-171.5 -119t-112.5 -183.5t-41 -235.5zM541 387v725q0 31 32 35h183q43 0 83 -11.5t69.5 -37t47 -67.5t17.5 -103q0 -98 -40 -147.5 t-99 -65.5l135 -299q4 -12 4 -15q0 -20 -17.5 -35.5t-35.5 -15.5q-14 0 -22.5 11.5t-16.5 27.5l-144 313h-102v-315q0 -16 -13.5 -25.5t-31.5 -9.5t-33.5 9.5t-15.5 25.5zM635 782h121q55 0 89 32t34 106q0 78 -34 109.5t-89 31.5h-121v-279z" />
<glyph unicode="&#xaf;" horiz-adv-x="542" d="M0 1352q0 23 14.5 38t36.5 15h441q18 0 34.5 -15.5t16.5 -37.5q0 -23 -16.5 -37.5t-34.5 -14.5h-441q-23 0 -37 14.5t-14 37.5z" />
<glyph unicode="&#xb0;" horiz-adv-x="858" d="M66 1204q0 74 28.5 140.5t77.5 117.5t115.5 81t140.5 30t139.5 -28.5t115.5 -79t80 -118t30 -143.5q0 -74 -30 -140.5t-80 -118.5t-115.5 -83t-139.5 -31t-139.5 31t-114.5 82t-78.5 118.5t-29.5 141.5zM166 1204q0 -53 20.5 -101t56.5 -87t83 -61.5t102 -22.5 t103.5 22.5t84 61.5t57 87t21.5 101q0 51 -20.5 99.5t-57 86t-85 60.5t-103.5 23t-103.5 -23t-83 -60.5t-55 -86t-20.5 -99.5z" />
<glyph unicode="&#xb1;" horiz-adv-x="964" d="M104 174q0 27 13.5 44.5t36.5 17.5h655q20 0 36.5 -17.5t16.5 -44.5t-16.5 -42t-36.5 -15h-655q-23 0 -36.5 15t-13.5 42zM104 723q0 25 13.5 42t36.5 17h270v262q0 20 17.5 37t41.5 17q27 0 43.5 -16.5t16.5 -37.5v-262h266q20 0 36.5 -17t16.5 -42q0 -27 -16.5 -43 t-36.5 -16h-266v-265q0 -23 -16.5 -36t-43.5 -13q-25 0 -42 13.5t-17 35.5v265h-270q-23 0 -36.5 16t-13.5 43z" />
<glyph unicode="&#xb2;" horiz-adv-x="628" d="M68 762v100q0 43 28.5 80t71.5 69.5t93 63.5t93 63.5t72 68.5t29 77q0 43 -34 81t-108 38q-53 0 -90 -26.5t-37 -84.5q0 -14 -14 -25.5t-39 -11.5q-23 0 -36 11.5t-13 44.5q0 86 67.5 136t163.5 50q51 0 95.5 -15.5t77 -43t51 -66.5t18.5 -84q0 -57 -28.5 -101t-70.5 -81 t-92.5 -66.5t-92.5 -58.5t-70.5 -56.5t-28.5 -58.5v-49h354q16 0 26.5 -13t10.5 -32q0 -16 -10 -31.5t-27 -15.5h-413q-16 0 -31.5 10t-15.5 27z" />
<glyph unicode="&#xb3;" horiz-adv-x="641" d="M59 903q0 27 11.5 35t38.5 8q31 0 42 -9t11 -28q0 -35 33.5 -66.5t115.5 -31.5q78 0 116 33t38 104v19q0 66 -42 93t-112 27q-20 0 -28.5 12.5t-8.5 28.5t8.5 29.5t28.5 13.5q59 0 95 24t36 95q0 61 -30.5 89t-96.5 28q-80 0 -106.5 -29.5t-26.5 -62.5q0 -20 -10 -31.5 t-39 -11.5q-35 0 -44 10t-9 39q0 25 10 55.5t37 57t73 45t117 18.5q98 0 162 -42t64 -144q0 -68 -27 -114t-67 -64q53 -18 85.5 -58.5t32.5 -107.5v-19q0 -61 -20.5 -105t-55 -72t-80.5 -40t-100 -12q-66 0 -112.5 17.5t-77.5 44t-46.5 59t-15.5 63.5z" />
<glyph unicode="&#xb4;" horiz-adv-x="317" d="M0 1268q0 25 23 37l229 125q6 6 16 6q23 0 36 -18.5t13 -39.5q0 -33 -24 -45l-219 -116q-10 -6 -21 -7q-23 0 -38 17.5t-15 40.5z" />
<glyph unicode="&#xb5;" horiz-adv-x="1005" d="M145 -424v1342q0 18 18.5 34.5t47.5 16.5t48.5 -16.5t19.5 -34.5v-584q0 -33 21.5 -73t57 -73.5t82.5 -56t97 -22.5q49 0 93 22.5t77.5 59t53 84t19.5 96.5v547q0 23 20.5 37t47.5 14q29 0 47 -14.5t18 -36.5v-547q0 -80 -29.5 -149.5t-79.5 -122t-119.5 -83 t-149.5 -30.5q-92 0 -162 40t-105 91v-541q0 -23 -17.5 -37t-39.5 -14q-29 0 -47.5 14.5t-18.5 36.5z" />
<glyph unicode="&#xb6;" horiz-adv-x="1073" d="M66 1051v24q0 115 30.5 196t85 131t128 72.5t157.5 22.5h399q20 0 36 -12t16 -39v-1395q0 -29 -15.5 -40t-36.5 -11q-20 0 -36.5 11.5t-16.5 39.5v1358h-158v-1356q0 -27 -16 -40t-37 -13q-18 0 -34.5 13.5t-16.5 39.5v574h-84q-84 0 -157.5 22.5t-128 73.5t-85 132 t-30.5 196z" />
<glyph unicode="&#xb7;" horiz-adv-x="376" d="M92 614q0 39 27.5 66t68.5 27t69 -27t28 -66q0 -37 -28 -64.5t-69 -27.5t-68.5 28t-27.5 64z" />
<glyph unicode="&#xb8;" horiz-adv-x="342" d="M0 -377q0 10 8 29.5t25 19.5q12 0 37.5 -14t76.5 -14q59 0 84 23.5t25 56.5q0 41 -35 61t-94 25l-78 6l53 202h82l-39 -143q104 -4 150.5 -48t46.5 -99q0 -29 -11.5 -56.5t-34 -50t-56 -37t-80.5 -14.5q-20 0 -48 3t-52.5 9t-42 16.5t-17.5 24.5z" />
<glyph unicode="&#xb9;" horiz-adv-x="346" d="M37 1335q0 10 6 22.5t14 16.5l113 113q12 12 29 12q16 0 30.5 -10t14.5 -27v-700q0 -18 -15.5 -27.5t-33.5 -9.5q-23 0 -38.5 9t-15.5 28v594l-43 -51q-10 -10 -24 -11q-16 0 -26.5 12.5t-10.5 28.5z" />
<glyph unicode="&#xba;" horiz-adv-x="671" d="M80 1135v133q0 49 20.5 94t55 79t81 54.5t99.5 20.5q51 0 97 -19.5t82 -53.5t56.5 -79t20.5 -96v-133q0 -49 -20.5 -95.5t-56.5 -81t-82 -55t-97 -20.5t-97 20.5t-82 55t-56.5 80.5t-20.5 96zM186 1135q0 -31 11.5 -58.5t32 -49t48 -35t58.5 -13.5t58.5 13.5t47 35 t31.5 49t12 58.5v133q0 57 -43 104t-106 47t-106.5 -47t-43.5 -104v-133z" />
<glyph unicode="&#xbb;" horiz-adv-x="835" d="M84 217q0 10 6 23l178 327l-178 330q-6 12 -6 23q0 23 22.5 44t53.5 21q35 0 47 -24l182 -336q10 -18 16.5 -30.5t6.5 -27.5q0 -14 -6.5 -26.5t-16.5 -28.5l-182 -336q-10 -25 -45 -24q-29 0 -53.5 21.5t-24.5 43.5zM436 217q0 10 6 23l179 327l-179 330q-6 12 -6 23 q0 23 22.5 44t53.5 21q35 0 47 -24l182 -336q10 -18 16.5 -30.5t6.5 -27.5q0 -14 -6 -26.5t-17 -28.5l-182 -336q-10 -25 -45 -24q-29 0 -53.5 21.5t-24.5 43.5z" />
<glyph unicode="&#xbc;" horiz-adv-x="1236" d="M61 1335q0 10 6.5 22.5t14.5 16.5l113 113q12 12 28 12t30.5 -10t14.5 -27v-700q0 -18 -15 -27.5t-34 -9.5q-23 0 -38 9t-15 28v594l-43 -51q-10 -10 -25 -11q-16 0 -26.5 12.5t-10.5 28.5zM143 -4q0 12 7 24l780 1530q6 14 17.5 19.5t23.5 5.5q20 0 38.5 -15.5 t18.5 -39.5q0 -14 -6 -27l-776 -1518q-16 -31 -49 -30q-23 0 -38.5 15t-15.5 36zM657 215q0 8 7 21l286 505q18 31 47 31q16 0 34 -11t18 -30q0 -8 -5 -16l-253 -443h196v158q0 16 15.5 24.5t35.5 8.5t36 -8.5t16 -24.5v-158h61q16 0 26.5 -15t10.5 -34q0 -18 -11.5 -32.5 t-25.5 -14.5h-61v-141q0 -16 -15.5 -25.5t-36.5 -9.5q-20 0 -35.5 9t-15.5 26v141h-293q-16 0 -26.5 10.5t-10.5 28.5z" />
<glyph unicode="&#xbd;" horiz-adv-x="1267" d="M63 1335q0 10 6.5 22.5t14.5 16.5l113 113q12 12 28 12t30.5 -10t14.5 -27v-700q0 -18 -15 -27.5t-34 -9.5q-23 0 -38 9t-15 28v594l-43 -51q-10 -10 -25 -11q-16 0 -26.5 12.5t-10.5 28.5zM113 -4q0 12 6 24l780 1530q6 14 17.5 19.5t23.5 5.5q20 0 38.5 -15.5 t18.5 -39.5q0 -14 -6 -27l-776 -1518q-16 -31 -49 -30q-23 0 -38 15t-15 36zM705 35v102q0 43 28.5 80t71.5 69.5t93 63.5t93 63.5t72 68.5t29 77t-34 79t-108 38q-53 0 -90 -25.5t-37 -83.5q0 -14 -14 -26.5t-39 -12.5q-23 0 -36 12.5t-13 45.5q0 86 67.5 136t163.5 50 q51 0 95.5 -15.5t77 -43t51 -66.5t18.5 -84q0 -57 -28.5 -101t-70.5 -81t-92.5 -67.5t-92.5 -58.5t-70.5 -55.5t-28.5 -58.5v-49h354q16 0 26.5 -13t10.5 -32q0 -18 -10 -32.5t-27 -14.5h-413q-16 0 -31.5 9t-15.5 26z" />
<glyph unicode="&#xbe;" horiz-adv-x="1503" d="M66 903q0 27 11 35t38 8q31 0 42 -9t11 -28q0 -35 33.5 -66.5t115.5 -31.5q78 0 116 33t38 104v19q0 66 -42 93t-112 27q-20 0 -28 12.5t-8 28.5t8 29.5t28 13.5q59 0 95.5 24t36.5 95q0 61 -31 89t-96 28q-80 0 -107 -29.5t-27 -62.5q0 -20 -10 -31.5t-39 -11.5 q-35 0 -44 10t-9 39q0 25 10 55.5t37 57t73 45t118 18.5q98 0 161.5 -42t63.5 -144q0 -68 -26.5 -114t-67.5 -64q53 -18 85.5 -58.5t32.5 -107.5v-19q0 -61 -20.5 -105t-55 -72t-80.5 -40t-100 -12q-66 0 -112.5 17.5t-77.5 44t-46 59t-15 63.5zM399 -4q0 12 7 24l780 1530 q6 14 17.5 19.5t23.5 5.5q20 0 38.5 -15.5t18.5 -39.5q0 -14 -6 -27l-776 -1518q-16 -31 -49 -30q-23 0 -38.5 15t-15.5 36zM926 215q0 8 6 21l287 505q18 31 47 31q16 0 33.5 -11t17.5 -30q0 -8 -4 -16l-254 -443h196v158q0 16 15.5 24.5t36.5 8.5q20 0 35.5 -8.5 t15.5 -24.5v-158h61q16 0 26.5 -15t10.5 -34q0 -18 -11 -32.5t-26 -14.5h-61v-141q0 -16 -15.5 -25.5t-35.5 -9.5t-36 9t-16 26v141h-292q-16 0 -26.5 10.5t-10.5 28.5z" />
<glyph unicode="&#xbf;" horiz-adv-x="813" d="M66 352q0 96 31.5 168t75.5 126t90 94t75 75q51 55 61.5 126t10.5 185q0 47 55 48q25 0 40 -12.5t15 -47.5q0 -86 -7 -144.5t-18.5 -98.5t-27.5 -66.5t-35 -46.5q-33 -35 -76 -72t-81.5 -82t-65.5 -103.5t-27 -138.5q0 -123 71 -192.5t206 -69.5q68 0 108.5 15.5t67.5 35 t43 35t37 15.5q16 0 33.5 -14.5t17.5 -41.5q0 -25 -23.5 -52t-65.5 -51t-99.5 -39t-124.5 -15q-96 0 -169 28.5t-121 77.5t-72.5 115.5t-24.5 142.5zM371 1430q0 37 26.5 65.5t67.5 28.5t67.5 -29t26.5 -65q0 -41 -27.5 -69t-66.5 -28t-66.5 28t-27.5 69z" />
<glyph unicode="&#xc0;" horiz-adv-x="1105" d="M43 57q0 10 2 15l428 1390q8 25 30.5 36t49.5 11q29 0 51.5 -12t30.5 -35l426 -1390q0 -4 1 -6.5t1 -6.5q0 -25 -26.5 -42t-55.5 -17q-39 0 -51 35l-94 315h-568l-94 -315q-4 -18 -19.5 -26.5t-33.5 -8.5q-27 0 -52.5 15.5t-25.5 41.5zM303 467h498l-248 825zM385 1898 q0 20 13.5 39t35.5 19q8 0 19 -6l227 -125q23 -12 22 -37q0 -23 -15 -40t-38 -17q-12 0 -20 6l-217 116q-27 12 -27 45z" />
<glyph unicode="&#xc1;" horiz-adv-x="1105" d="M43 57q0 10 2 15l428 1390q8 25 30.5 36t49.5 11q29 0 51.5 -12t30.5 -35l426 -1390q0 -4 1 -6.5t1 -6.5q0 -25 -26.5 -42t-55.5 -17q-39 0 -51 35l-94 315h-568l-94 -315q-4 -18 -19.5 -26.5t-33.5 -8.5q-27 0 -52.5 15.5t-25.5 41.5zM303 467h498l-248 825zM414 1788 q0 25 22 37l230 125q6 6 16 6q23 0 36 -18.5t13 -39.5q0 -33 -24 -45l-220 -116q-10 -6 -20 -6q-23 0 -38 17t-15 40z" />
<glyph unicode="&#xc2;" horiz-adv-x="1105" d="M43 57q0 10 2 15l428 1390q8 25 30.5 36t49.5 11q29 0 51.5 -12t30.5 -35l426 -1390q0 -4 1 -6.5t1 -6.5q0 -25 -26.5 -42t-55.5 -17q-39 0 -51 35l-94 315h-568l-94 -315q-4 -18 -19.5 -26.5t-33.5 -8.5q-27 0 -52.5 15.5t-25.5 41.5zM276 1786q0 12 6.5 24.5t20.5 20.5 l213 115q16 10 35 10q18 0 35 -10l213 -115q14 -6 20 -19.5t6 -27.5q0 -20 -12 -34.5t-29 -14.5q-4 0 -10 2t-10 4l-213 112l-213 -114q-4 -2 -9 -4t-10 -2q-16 0 -29.5 15t-13.5 38zM303 467h498l-248 825z" />
<glyph unicode="&#xc3;" horiz-adv-x="1105" d="M43 57q0 10 2 15l428 1390q8 25 30.5 36t49.5 11q29 0 51.5 -12t30.5 -35l426 -1390q0 -4 1 -6.5t1 -6.5q0 -25 -26.5 -42t-55.5 -17q-39 0 -51 35l-94 315h-568l-94 -315q-4 -18 -19.5 -26.5t-33.5 -8.5q-27 0 -52.5 15.5t-25.5 41.5zM236 1825q0 29 18 50t46 36.5 t59.5 23t56.5 7.5q39 0 71.5 -11.5t63.5 -24t62.5 -23.5t72.5 -11q35 0 56.5 9t36 20.5t25.5 20.5t25 9q20 0 30.5 -16.5t10.5 -30.5q0 -31 -18 -53.5t-45 -36.5t-56.5 -20.5t-52.5 -6.5q-41 0 -73.5 11.5t-62.5 25t-62.5 24.5t-73.5 11q-33 0 -56.5 -10t-40 -22.5 t-29.5 -22.5t-26 -10q-20 0 -29 17t-9 34zM303 467h498l-248 825z" />
<glyph unicode="&#xc4;" horiz-adv-x="1105" d="M43 57q0 10 2 15l428 1390q8 25 30.5 36t49.5 11q29 0 51.5 -12t30.5 -35l426 -1390q0 -4 1 -6.5t1 -6.5q0 -25 -26.5 -42t-55.5 -17q-39 0 -51 35l-94 315h-568l-94 -315q-4 -18 -19.5 -26.5t-33.5 -8.5q-27 0 -52.5 15.5t-25.5 41.5zM303 467h498l-248 825zM352 1810 q0 33 21.5 53.5t54.5 20.5q31 0 52.5 -20.5t21.5 -53.5q0 -31 -21.5 -53t-52.5 -22q-33 0 -54.5 22.5t-21.5 52.5zM604 1810q0 33 21.5 53.5t54.5 20.5t53.5 -20.5t20.5 -53.5q0 -31 -20.5 -53t-53.5 -22t-54.5 22.5t-21.5 52.5z" />
<glyph unicode="&#xc5;" horiz-adv-x="1105" d="M43 57q0 10 2 15l428 1390q8 25 30.5 36t49.5 11q29 0 51.5 -12t30.5 -35l426 -1390q0 -4 1 -6.5t1 -6.5q0 -25 -26.5 -42t-55.5 -17q-39 0 -51 35l-94 315h-568l-94 -315q-4 -18 -19.5 -26.5t-33.5 -8.5q-27 0 -52.5 15.5t-25.5 41.5zM303 467h498l-248 825zM362 1903 q0 37 14.5 71.5t40 60t59.5 42t75 16.5q37 0 71.5 -15.5t61.5 -42t42 -61.5t15 -71q0 -39 -15 -74t-42 -62.5t-61.5 -44t-71.5 -16.5q-39 0 -73 16.5t-59.5 44t-41 62.5t-15.5 74zM430 1903q0 -49 36 -89t87 -40q47 0 83 40t36 89q0 43 -36 80.5t-83 37.5q-53 0 -88 -37.5 t-35 -80.5z" />
<glyph unicode="&#xc6;" horiz-adv-x="1464" d="M150 63v998q0 119 32.5 202t90 135t134 75.5t164.5 23.5h795q27 0 38 -18.5t11 -40.5q0 -27 -13 -46.5t-36 -19.5h-481v-563h301q25 0 38 -18.5t13 -42.5q0 -20 -11.5 -38t-39.5 -18h-301v-567h481q23 0 36 -19.5t13 -44.5q0 -23 -11 -42t-38 -19h-553q-23 0 -43 13.5 t-20 39.5v639h-469v-629q0 -29 -11.5 -46t-56.5 -17q-35 0 -49 17.5t-14 45.5zM281 809h469v563h-179q-137 0 -213.5 -75.5t-76.5 -235.5v-252z" />
<glyph unicode="&#xc7;" horiz-adv-x="1071" d="M139 426v635q0 119 35 202t93.5 135t136 75.5t165.5 23.5q100 0 179 -27.5t132.5 -74.5t82 -108.5t28.5 -131.5q0 -51 -16.5 -66.5t-50.5 -15.5q-35 0 -50.5 14t-17.5 37q-2 33 -12 76t-41 81t-86 64.5t-148 26.5q-143 0 -219 -75.5t-76 -235.5v-635q0 -162 77 -237.5 t227 -75.5q92 0 145 25.5t80.5 63.5t38 82t14.5 81q6 53 68 53q35 0 51 -16.5t16 -67.5q0 -63 -23.5 -120.5t-68.5 -104t-111.5 -77t-150.5 -38.5l-31 -119q104 -4 150.5 -48t46.5 -99q0 -29 -11.5 -56.5t-34 -50t-56 -37t-80.5 -14.5q-20 0 -48 3t-52.5 9t-42 16.5 t-17.5 24.5q0 10 8 29.5t25 19.5q12 0 37.5 -14t76.5 -14q59 0 84 23.5t25 56.5q0 41 -35 61t-94 25l-78 6l45 172q-86 2 -161 25.5t-132 75.5t-90 135t-33 202z" />
<glyph unicode="&#xc8;" horiz-adv-x="1040" d="M156 53v1393q0 27 19.5 39t41.5 12h729q29 0 40 -18.5t11 -40.5q0 -27 -13 -46.5t-38 -19.5h-655v-563h321q25 0 38.5 -18.5t13.5 -42.5q0 -20 -11.5 -38t-40.5 -18h-321v-567h655q25 0 38 -19.5t13 -44.5q0 -23 -11 -42t-40 -19h-729q-23 0 -42 13.5t-19 39.5zM414 1898 q0 20 13 39t36 19q8 0 18 -6l228 -125q23 -12 22 -37q0 -23 -15.5 -40t-37.5 -17q-12 0 -21 6l-217 116q-27 12 -26 45z" />
<glyph unicode="&#xc9;" horiz-adv-x="1040" d="M156 53v1393q0 27 19.5 39t41.5 12h729q29 0 40 -18.5t11 -40.5q0 -27 -13 -46.5t-38 -19.5h-655v-563h321q25 0 38.5 -18.5t13.5 -42.5q0 -20 -11.5 -38t-40.5 -18h-321v-567h655q25 0 38 -19.5t13 -44.5q0 -23 -11 -42t-40 -19h-729q-23 0 -42 13.5t-19 39.5zM430 1788 q0 25 23 37l229 125q6 6 16 6q23 0 36.5 -18.5t13.5 -39.5q0 -33 -25 -45l-219 -116q-10 -6 -21 -6q-23 0 -38 17t-15 40z" />
<glyph unicode="&#xca;" horiz-adv-x="1040" d="M156 53v1393q0 27 19.5 39t41.5 12h729q29 0 40 -18.5t11 -40.5q0 -27 -13 -46.5t-38 -19.5h-655v-563h321q25 0 38.5 -18.5t13.5 -42.5q0 -20 -11.5 -38t-40.5 -18h-321v-567h655q25 0 38 -19.5t13 -44.5q0 -23 -11 -42t-40 -19h-729q-23 0 -42 13.5t-19 39.5zM305 1786 q0 12 6 24.5t21 20.5l213 115q16 10 35 10q18 0 34 -10l213 -115q14 -6 20.5 -19.5t6.5 -27.5q0 -20 -12.5 -34.5t-28.5 -14.5q-4 0 -10 2t-10 4l-213 112l-213 -114q-4 -2 -9.5 -4t-9.5 -2q-16 0 -29.5 15t-13.5 38z" />
<glyph unicode="&#xcb;" horiz-adv-x="1040" d="M156 53v1393q0 27 19.5 39t41.5 12h729q29 0 40 -18.5t11 -40.5q0 -27 -13 -46.5t-38 -19.5h-655v-563h321q25 0 38.5 -18.5t13.5 -42.5q0 -20 -11.5 -38t-40.5 -18h-321v-567h655q25 0 38 -19.5t13 -44.5q0 -23 -11 -42t-40 -19h-729q-23 0 -42 13.5t-19 39.5zM377 1810 q0 33 21.5 53.5t54.5 20.5q31 0 52 -20.5t21 -53.5q0 -31 -21.5 -53t-51.5 -22q-33 0 -54.5 22.5t-21.5 52.5zM629 1810q0 33 21.5 53.5t54.5 20.5t53 -20.5t20 -53.5q0 -31 -20.5 -53t-52.5 -22q-33 0 -54.5 22.5t-21.5 52.5z" />
<glyph unicode="&#xcc;" horiz-adv-x="446" d="M59 1898q0 20 13.5 39t36.5 19q8 0 18 -6l227 -125q23 -12 23 -37q0 -23 -15.5 -40t-37.5 -17q-12 0 -21 6l-217 116q-27 12 -27 45zM156 53v1395q0 27 20.5 38t46.5 11q25 0 46.5 -11t21.5 -38v-1395q0 -27 -21.5 -40t-46.5 -13q-27 0 -47 13.5t-20 39.5z" />
<glyph unicode="&#xcd;" horiz-adv-x="446" d="M68 1788q0 25 22 37l229 125q6 6 17 6q23 0 36 -18.5t13 -39.5q0 -33 -25 -45l-219 -116q-10 -6 -20 -6q-23 0 -38 17t-15 40zM156 53v1395q0 27 20.5 38t46.5 11q25 0 46.5 -11t21.5 -38v-1395q0 -27 -21.5 -40t-46.5 -13q-27 0 -47 13.5t-20 39.5z" />
<glyph unicode="&#xce;" horiz-adv-x="446" d="M-51 1786q0 12 6 24.5t20 20.5l213 115q16 10 35 10q18 0 35 -10l213 -115q14 -6 20.5 -19.5t6.5 -27.5q0 -20 -12.5 -34.5t-28.5 -14.5q-4 0 -10.5 2t-10.5 4l-213 112l-213 -114q-4 -2 -9 -4t-9 -2q-16 0 -29.5 15t-13.5 38zM156 53v1395q0 27 20.5 38t46.5 11 q25 0 46.5 -11t21.5 -38v-1395q0 -27 -21.5 -40t-46.5 -13q-27 0 -47 13.5t-20 39.5z" />
<glyph unicode="&#xcf;" horiz-adv-x="446" d="M23 1810q0 33 21 53.5t54 20.5q31 0 52.5 -20.5t21.5 -53.5q0 -31 -21.5 -53t-52.5 -22q-33 0 -54 22.5t-21 52.5zM156 53v1395q0 27 20.5 38t46.5 11q25 0 46.5 -11t21.5 -38v-1395q0 -27 -21.5 -40t-46.5 -13q-27 0 -47 13.5t-20 39.5zM274 1810q0 33 21.5 53.5 t54.5 20.5t53.5 -20.5t20.5 -53.5q0 -31 -20.5 -53t-53.5 -22t-54.5 22.5t-21.5 52.5z" />
<glyph unicode="&#xd0;" horiz-adv-x="1165" d="M-2 786q0 23 12.5 39.5t34.5 16.5h129v606q0 20 16.5 34.5t45.5 14.5h362q90 0 168 -23.5t136.5 -75.5t91 -135t32.5 -202v-623q0 -121 -32.5 -203.5t-91 -135t-136.5 -76t-168 -23.5h-362q-29 0 -45.5 15.5t-16.5 35.5v680h-129q-23 0 -35 16.5t-12 38.5zM309 125h289 q137 0 215 77t78 236v623q0 160 -78 235.5t-215 75.5h-289v-530h232q20 0 33.5 -16.5t13.5 -39.5t-13.5 -39t-33.5 -16h-232v-606z" />
<glyph unicode="&#xd1;" horiz-adv-x="1173" d="M156 53v1393q0 29 20.5 40t46.5 11q37 0 61.5 -27.5t45.5 -66.5l553 -1090v1135q0 27 20.5 38t46.5 11q25 0 46.5 -11t21.5 -38v-1395q0 -27 -21.5 -40t-46.5 -13q-29 0 -51 23.5t-39 54.5l-569 1108v-1133q0 -27 -21.5 -40t-46.5 -13q-27 0 -47 13.5t-20 39.5zM264 1825 q0 29 18.5 50t46 36.5t59.5 23t56 7.5q39 0 72 -11.5t63.5 -24t62.5 -23.5t73 -11q35 0 56.5 9t35.5 20.5t25.5 20.5t25.5 9q20 0 30.5 -16.5t10.5 -30.5q0 -31 -18.5 -53.5t-45 -36.5t-56 -20.5t-52.5 -6.5q-41 0 -73.5 11.5t-62.5 25t-62.5 24.5t-73.5 11q-33 0 -56.5 -10 t-40 -22.5t-30 -22.5t-25.5 -10q-20 0 -29.5 17t-9.5 34z" />
<glyph unicode="&#xd2;" d="M139 426v635q0 119 33 202t90 135t135 75.5t168 23.5t168 -23.5t135.5 -75.5t90 -135t32.5 -202v-635q0 -121 -32.5 -204t-90 -135t-135.5 -75.5t-168 -23.5t-168 23.5t-135 75.5t-90 135t-33 204zM274 426q0 -162 77 -237.5t214 -75.5t214 75.5t77 237.5v635 q0 160 -77 235.5t-214 75.5t-214 -75.5t-77 -235.5v-635zM399 1898q0 20 13.5 39t36.5 19q8 0 18 -6l227 -125q23 -12 23 -37q0 -23 -15.5 -40t-37.5 -17q-12 0 -21 6l-217 116q-27 12 -27 45z" />
<glyph unicode="&#xd3;" d="M139 426v635q0 119 33 202t90 135t135 75.5t168 23.5t168 -23.5t135.5 -75.5t90 -135t32.5 -202v-635q0 -121 -32.5 -204t-90 -135t-135.5 -75.5t-168 -23.5t-168 23.5t-135 75.5t-90 135t-33 204zM274 426q0 -162 77 -237.5t214 -75.5t214 75.5t77 237.5v635 q0 160 -77 235.5t-214 75.5t-214 -75.5t-77 -235.5v-635zM430 1788q0 25 23 37l229 125q6 6 16 6q23 0 36.5 -18.5t13.5 -39.5q0 -33 -25 -45l-219 -116q-10 -6 -21 -6q-23 0 -38 17t-15 40z" />
<glyph unicode="&#xd4;" d="M139 426v635q0 119 33 202t90 135t135 75.5t168 23.5t168 -23.5t135.5 -75.5t90 -135t32.5 -202v-635q0 -121 -32.5 -204t-90 -135t-135.5 -75.5t-168 -23.5t-168 23.5t-135 75.5t-90 135t-33 204zM274 426q0 -162 77 -237.5t214 -75.5t214 75.5t77 237.5v635 q0 160 -77 235.5t-214 75.5t-214 -75.5t-77 -235.5v-635zM291 1786q0 12 6 24.5t20 20.5l213 115q16 10 35 10q18 0 35 -10l213 -115q14 -6 20.5 -19.5t6.5 -27.5q0 -20 -12.5 -34.5t-28.5 -14.5q-4 0 -10.5 2t-10.5 4l-213 112l-213 -114q-4 -2 -9 -4t-9 -2q-16 0 -29.5 15 t-13.5 38z" />
<glyph unicode="&#xd5;" d="M139 426v635q0 119 33 202t90 135t135 75.5t168 23.5t168 -23.5t135.5 -75.5t90 -135t32.5 -202v-635q0 -121 -32.5 -204t-90 -135t-135.5 -75.5t-168 -23.5t-168 23.5t-135 75.5t-90 135t-33 204zM248 1825q0 29 18.5 50t46 36.5t59 23t56.5 7.5q39 0 71.5 -11.5 t63.5 -24t62.5 -23.5t72.5 -11q35 0 56.5 9t36 20.5t25.5 20.5t26 9q20 0 30.5 -16.5t10.5 -30.5q0 -31 -18.5 -53.5t-45 -36.5t-56.5 -20.5t-52 -6.5q-41 0 -74 11.5t-62.5 25t-62.5 24.5t-74 11q-33 0 -56.5 -10t-39.5 -22.5t-29.5 -22.5t-25.5 -10q-20 0 -29.5 17 t-9.5 34zM274 426q0 -162 77 -237.5t214 -75.5t214 75.5t77 237.5v635q0 160 -77 235.5t-214 75.5t-214 -75.5t-77 -235.5v-635z" />
<glyph unicode="&#xd6;" d="M139 426v635q0 119 33 202t90 135t135 75.5t168 23.5t168 -23.5t135.5 -75.5t90 -135t32.5 -202v-635q0 -121 -32.5 -204t-90 -135t-135.5 -75.5t-168 -23.5t-168 23.5t-135 75.5t-90 135t-33 204zM274 426q0 -162 77 -237.5t214 -75.5t214 75.5t77 237.5v635 q0 160 -77 235.5t-214 75.5t-214 -75.5t-77 -235.5v-635zM365 1810q0 33 21 53.5t54 20.5q31 0 52.5 -20.5t21.5 -53.5q0 -31 -21.5 -53t-52.5 -22q-33 0 -54 22.5t-21 52.5zM616 1810q0 33 21.5 53.5t54.5 20.5t53.5 -20.5t20.5 -53.5q0 -31 -20.5 -53t-53.5 -22 t-54.5 22.5t-21.5 52.5z" />
<glyph unicode="&#xd7;" horiz-adv-x="815" d="M119 340q0 18 14 33l197 190l-197 191q-12 12 -12 34q0 23 19.5 42.5t41.5 19.5q20 0 37 -12l187 -191l190 191q12 12 35 12q25 0 44 -19.5t19 -42.5q0 -20 -14 -34l-195 -191l197 -190q12 -13 12 -33q0 -23 -18.5 -43.5t-44.5 -20.5q-18 0 -33 15l-192 190l-189 -190 q-14 -14 -35 -15q-23 0 -43 20.5t-20 43.5z" />
<glyph unicode="&#xd8;" d="M123 -4q0 12 6 24l72 142q-61 98 -62 264v635q0 119 33 202t90 135t135 75.5t168 23.5q80 0 150.5 -19.5t126.5 -60.5l67 133q6 14 17.5 19.5t23.5 5.5q20 0 40 -15.5t20 -39.5q0 -16 -9 -27l-79 -158q33 -51 51 -118.5t18 -155.5v-635q0 -121 -32.5 -204t-90 -135 t-135.5 -75.5t-168 -23.5q-86 0 -158.5 20.5t-130.5 67.5l-51 -101q-6 -16 -19 -23t-30 -7q-23 0 -38 15t-15 36zM274 426q0 -61 9 -102l495 972q-74 76 -213 76q-137 0 -214 -75.5t-77 -235.5v-635zM340 201q74 -88 225 -88q137 0 214 75.5t77 237.5v635q0 35 -4 63.5 t-10 55.5z" />
<glyph unicode="&#xd9;" horiz-adv-x="1159" d="M150 426v1022q0 27 21.5 38t45.5 11q27 0 47.5 -11t20.5 -38v-1022q0 -160 77.5 -236.5t217.5 -76.5q139 0 216.5 76.5t77.5 236.5v1022q0 27 20.5 38t47.5 11q25 0 46.5 -11t21.5 -38v-1022q0 -121 -34 -204t-92.5 -135t-136 -75.5t-167.5 -23.5t-169 23.5t-137.5 75.5 t-91 135t-32.5 204zM410 1898q0 20 13 39t36 19q8 0 18 -6l228 -125q23 -12 22 -37q0 -23 -15.5 -40t-37.5 -17q-12 0 -21 6l-217 116q-27 12 -26 45z" />
<glyph unicode="&#xda;" horiz-adv-x="1159" d="M150 426v1022q0 27 21.5 38t45.5 11q27 0 47.5 -11t20.5 -38v-1022q0 -160 77.5 -236.5t217.5 -76.5q139 0 216.5 76.5t77.5 236.5v1022q0 27 20.5 38t47.5 11q25 0 46.5 -11t21.5 -38v-1022q0 -121 -34 -204t-92.5 -135t-136 -75.5t-167.5 -23.5t-169 23.5t-137.5 75.5 t-91 135t-32.5 204zM434 1788q0 25 23 37l229 125q6 6 16 6q23 0 36.5 -18.5t13.5 -39.5q0 -33 -25 -45l-219 -116q-10 -6 -21 -6q-23 0 -38 17t-15 40z" />
<glyph unicode="&#xdb;" horiz-adv-x="1159" d="M150 426v1022q0 27 21.5 38t45.5 11q27 0 47.5 -11t20.5 -38v-1022q0 -160 77.5 -236.5t217.5 -76.5q139 0 216.5 76.5t77.5 236.5v1022q0 27 20.5 38t47.5 11q25 0 46.5 -11t21.5 -38v-1022q0 -121 -34 -204t-92.5 -135t-136 -75.5t-167.5 -23.5t-169 23.5t-137.5 75.5 t-91 135t-32.5 204zM301 1786q0 12 6 24.5t21 20.5l213 115q16 10 34 10t35 -10l213 -115q14 -6 20.5 -19.5t6.5 -27.5q0 -20 -12.5 -34.5t-28.5 -14.5q-4 0 -10 2t-11 4l-213 112l-213 -114q-4 -2 -9 -4t-9 -2q-16 0 -29.5 15t-13.5 38z" />
<glyph unicode="&#xdc;" horiz-adv-x="1159" d="M150 426v1022q0 27 21.5 38t45.5 11q27 0 47.5 -11t20.5 -38v-1022q0 -160 77.5 -236.5t217.5 -76.5q139 0 216.5 76.5t77.5 236.5v1022q0 27 20.5 38t47.5 11q25 0 46.5 -11t21.5 -38v-1022q0 -121 -34 -204t-92.5 -135t-136 -75.5t-167.5 -23.5t-169 23.5t-137.5 75.5 t-91 135t-32.5 204zM379 1810q0 33 21.5 53.5t54.5 20.5q31 0 52 -20.5t21 -53.5q0 -31 -21.5 -53t-51.5 -22q-33 0 -54.5 22.5t-21.5 52.5zM631 1810q0 33 21.5 53.5t54.5 20.5t53 -20.5t20 -53.5q0 -31 -20.5 -53t-52.5 -22q-33 0 -54.5 22.5t-21.5 52.5z" />
<glyph unicode="&#xdd;" horiz-adv-x="1087" d="M39 1440q0 27 24.5 42t49.5 15q33 0 53 -41l377 -747l379 747q20 41 53 41q25 0 49.5 -15.5t24.5 -41.5q0 -6 -2.5 -16.5t-6.5 -20.5l-426 -813q-4 -12 -4 -17v-520q0 -27 -20.5 -40t-46.5 -13q-25 0 -46.5 13.5t-21.5 39.5v520q0 10 -2 17l-424 813q-6 10 -8 20.5 t-2 16.5zM395 1788q0 25 23 37l229 125q6 6 17 6q23 0 36 -18.5t13 -39.5q0 -33 -25 -45l-219 -116q-10 -6 -20 -6q-23 0 -38.5 17t-15.5 40z" />
<glyph unicode="&#xde;" horiz-adv-x="1013" d="M156 53v1405q0 23 18 35t45 12q31 0 50.5 -13t19.5 -36v-344q35 63 104.5 109.5t177.5 46.5q70 0 134.5 -22.5t113.5 -64.5t78 -103.5t29 -139.5v-330q0 -78 -30 -139t-79 -105.5t-110.5 -68t-124.5 -23.5q-47 0 -94.5 12.5t-87.5 34t-69.5 51t-41.5 64.5v-381 q0 -20 -19.5 -36.5t-48.5 -16.5t-47 16.5t-18 36.5zM289 600q0 -35 19.5 -70.5t54 -65.5t82 -49.5t104.5 -19.5q45 0 89 13.5t79 41t55.5 66.5t20.5 92v330q0 51 -20.5 89t-54.5 64.5t-78 40t-91 13.5q-51 0 -98.5 -14.5t-83 -42t-57 -65.5t-21.5 -85v-338z" />
<glyph unicode="&#xdf;" horiz-adv-x="1128" d="M12 913q0 23 12.5 39.5t34.5 16.5h150v225q0 76 18.5 144.5t59.5 120.5t105.5 83t156.5 31q74 0 137.5 -21.5t110.5 -67.5t73.5 -116t26.5 -166q0 -53 -9 -107.5t-27.5 -102.5t-45.5 -84t-63 -52q51 -10 104 -45t96 -89t70 -125t27 -151v-34q0 -115 -32 -200t-84 -141.5 t-118.5 -84t-138.5 -27.5q-25 0 -61.5 3t-71.5 12.5t-59.5 26.5t-24.5 48q0 20 10 42t31 22q20 0 55 -19.5t104 -19.5q121 0 192 84t71 245v35q0 59 -17.5 117.5t-55.5 106t-97.5 79t-143.5 41.5q-31 4 -50 12.5t-19 43.5t20.5 45t50.5 14q55 4 89 32.5t51.5 68.5t23.5 86 t6 83q0 129 -54 206t-171 77q-61 0 -102 -21.5t-66 -57.5t-35 -82t-10 -95v-1143q0 -23 -20.5 -37t-49.5 -14t-46 14.5t-17 36.5v807h-150q-23 0 -35 16.5t-12 38.5z" />
<glyph unicode="&#xe0;" horiz-adv-x="897" d="M61 256q0 84 35 138.5t97.5 86t150.5 44t195 12.5h104v49q0 49 -13.5 98t-42 89t-74.5 65.5t-112 25.5q-51 0 -86.5 -9t-61.5 -20.5t-42 -20.5t-29 -9q-27 0 -40 24.5t-13 47.5q0 20 24.5 38.5t64.5 33t89.5 23.5t98.5 9q102 0 172.5 -33t114.5 -88t63.5 -126.5 t19.5 -147.5v-533q0 -23 -18.5 -38t-46.5 -15q-27 0 -44.5 15.5t-17.5 37.5v90q-53 -61 -129 -109t-180 -48q-59 0 -109.5 16t-88.5 50t-59.5 84t-21.5 120zM195 268q0 -90 51 -130t127 -40q49 0 97 20.5t87 52.5t62.5 70t23.5 72v131h-86q-72 0 -136.5 -5t-115.5 -23.5 t-80.5 -53t-29.5 -94.5zM262 1378q0 20 13.5 39t35.5 19q8 0 19 -6l227 -125q23 -12 23 -37q0 -23 -15.5 -40.5t-38.5 -17.5q-12 0 -20 7l-217 116q-27 12 -27 45z" />
<glyph unicode="&#xe1;" horiz-adv-x="897" d="M61 256q0 84 35 138.5t97.5 86t150.5 44t195 12.5h104v49q0 49 -13.5 98t-42 89t-74.5 65.5t-112 25.5q-51 0 -86.5 -9t-61.5 -20.5t-42 -20.5t-29 -9q-27 0 -40 24.5t-13 47.5q0 20 24.5 38.5t64.5 33t89.5 23.5t98.5 9q102 0 172.5 -33t114.5 -88t63.5 -126.5 t19.5 -147.5v-533q0 -23 -18.5 -38t-46.5 -15q-27 0 -44.5 15.5t-17.5 37.5v90q-53 -61 -129 -109t-180 -48q-59 0 -109.5 16t-88.5 50t-59.5 84t-21.5 120zM195 268q0 -90 51 -130t127 -40q49 0 97 20.5t87 52.5t62.5 70t23.5 72v131h-86q-72 0 -136.5 -5t-115.5 -23.5 t-80.5 -53t-29.5 -94.5zM272 1268q0 25 23 37l229 125q6 6 17 6q23 0 36 -18.5t13 -39.5q0 -33 -25 -45l-219 -116q-10 -6 -20 -7q-23 0 -38.5 17.5t-15.5 40.5z" />
<glyph unicode="&#xe2;" horiz-adv-x="897" d="M61 256q0 84 35 138.5t97.5 86t150.5 44t195 12.5h104v49q0 49 -13.5 98t-42 89t-74.5 65.5t-112 25.5q-51 0 -86.5 -9t-61.5 -20.5t-42 -20.5t-29 -9q-27 0 -40 24.5t-13 47.5q0 20 24.5 38.5t64.5 33t89.5 23.5t98.5 9q102 0 172.5 -33t114.5 -88t63.5 -126.5 t19.5 -147.5v-533q0 -23 -18.5 -38t-46.5 -15q-27 0 -44.5 15.5t-17.5 37.5v90q-53 -61 -129 -109t-180 -48q-59 0 -109.5 16t-88.5 50t-59.5 84t-21.5 120zM147 1266q0 12 6.5 24.5t20.5 20.5l213 114q16 10 35 11q18 0 35 -11l213 -114q14 -6 20 -19.5t6 -27.5 q0 -20 -12 -35t-29 -15q-4 0 -10 2.5t-10 4.5l-213 112l-213 -114l-9 -4.5t-10 -2.5q-16 0 -29.5 15.5t-13.5 38.5zM195 268q0 -90 51 -130t127 -40q49 0 97 20.5t87 52.5t62.5 70t23.5 72v131h-86q-72 0 -136.5 -5t-115.5 -23.5t-80.5 -53t-29.5 -94.5z" />
<glyph unicode="&#xe3;" horiz-adv-x="897" d="M61 256q0 84 35 138.5t97.5 86t150.5 44t195 12.5h104v49q0 49 -13.5 98t-42 89t-74.5 65.5t-112 25.5q-51 0 -86.5 -9t-61.5 -20.5t-42 -20.5t-29 -9q-27 0 -40 24.5t-13 47.5q0 20 24.5 38.5t64.5 33t89.5 23.5t98.5 9q102 0 172.5 -33t114.5 -88t63.5 -126.5 t19.5 -147.5v-533q0 -23 -18.5 -38t-46.5 -15q-27 0 -44.5 15.5t-17.5 37.5v90q-53 -61 -129 -109t-180 -48q-59 0 -109.5 16t-88.5 50t-59.5 84t-21.5 120zM102 1305q0 29 18.5 50t46.5 36.5t59.5 22.5t56.5 7q39 0 71.5 -11t63.5 -23.5t62.5 -23.5t72.5 -11q35 0 56.5 9 t35.5 20.5t25.5 20.5t25.5 9q20 0 30.5 -16.5t10.5 -30.5q0 -31 -18.5 -53.5t-45 -36.5t-56 -20.5t-52.5 -6.5q-41 0 -73.5 11.5t-62.5 24.5t-62.5 24.5t-73.5 11.5q-33 0 -56.5 -10.5t-40 -22.5t-29.5 -22.5t-26 -10.5q-20 0 -29.5 17.5t-9.5 34.5zM195 268q0 -90 51 -130 t127 -40q49 0 97 20.5t87 52.5t62.5 70t23.5 72v131h-86q-72 0 -136.5 -5t-115.5 -23.5t-80.5 -53t-29.5 -94.5z" />
<glyph unicode="&#xe4;" horiz-adv-x="897" d="M61 256q0 84 35 138.5t97.5 86t150.5 44t195 12.5h104v49q0 49 -13.5 98t-42 89t-74.5 65.5t-112 25.5q-51 0 -86.5 -9t-61.5 -20.5t-42 -20.5t-29 -9q-27 0 -40 24.5t-13 47.5q0 20 24.5 38.5t64.5 33t89.5 23.5t98.5 9q102 0 172.5 -33t114.5 -88t63.5 -126.5 t19.5 -147.5v-533q0 -23 -18.5 -38t-46.5 -15q-27 0 -44.5 15.5t-17.5 37.5v90q-53 -61 -129 -109t-180 -48q-59 0 -109.5 16t-88.5 50t-59.5 84t-21.5 120zM195 268q0 -90 51 -130t127 -40q49 0 97 20.5t87 52.5t62.5 70t23.5 72v131h-86q-72 0 -136.5 -5t-115.5 -23.5 t-80.5 -53t-29.5 -94.5zM219 1290q0 33 21.5 53.5t54.5 20.5q31 0 52.5 -20.5t21.5 -53.5q0 -31 -21.5 -53.5t-52.5 -22.5q-33 0 -54.5 23t-21.5 53zM471 1290q0 33 21.5 53.5t54.5 20.5t53.5 -20.5t20.5 -53.5q0 -31 -20.5 -53.5t-53.5 -22.5t-54.5 23t-21.5 53z" />
<glyph unicode="&#xe5;" horiz-adv-x="897" d="M61 256q0 84 35 138.5t97.5 86t150.5 44t195 12.5h104v49q0 49 -13.5 98t-42 89t-74.5 65.5t-112 25.5q-51 0 -86.5 -9t-61.5 -20.5t-42 -20.5t-29 -9q-27 0 -40 24.5t-13 47.5q0 20 24.5 38.5t64.5 33t89.5 23.5t98.5 9q102 0 172.5 -33t114.5 -88t63.5 -126.5 t19.5 -147.5v-533q0 -23 -18.5 -38t-46.5 -15q-27 0 -44.5 15.5t-17.5 37.5v90q-53 -61 -129 -109t-180 -48q-59 0 -109.5 16t-88.5 50t-59.5 84t-21.5 120zM195 268q0 -90 51 -130t127 -40q49 0 97 20.5t87 52.5t62.5 70t23.5 72v131h-86q-72 0 -136.5 -5t-115.5 -23.5 t-80.5 -53t-29.5 -94.5zM233 1382q0 37 14.5 72t40 60.5t59.5 42t75 16.5q37 0 71.5 -15.5t61.5 -42t42 -61.5t15 -72q0 -39 -15 -73.5t-42 -62t-61.5 -44t-71.5 -16.5q-39 0 -73 16.5t-59.5 44t-41 62t-15.5 73.5zM301 1382q0 -49 36 -89t87 -40q47 0 83 40t36 89 q0 43 -36 81t-83 38q-53 0 -88 -38t-35 -81z" />
<glyph unicode="&#xe6;" horiz-adv-x="1490" d="M61 256q0 84 34 138.5t96.5 86t150.5 44t195 12.5h104v49q0 51 -13.5 101t-42 90t-75.5 64.5t-115 24.5q-49 0 -85 -9t-60.5 -20.5t-42 -20.5t-29.5 -9q-23 0 -38 23.5t-15 46.5q0 20 24.5 38.5t64.5 34t90 24.5t99 9q123 0 199 -53t115 -139q47 84 130 137t185 53 q66 0 134.5 -22.5t124 -70.5t91 -123t35.5 -179q0 -47 -9 -75t-30.5 -42t-55.5 -19.5t-83 -5.5h-459v-75q0 -61 22.5 -110.5t63.5 -84.5t97.5 -53.5t121.5 -18.5q57 0 97.5 12.5t68 28t47 28.5t35.5 13q23 0 40.5 -20.5t17.5 -42.5q0 -25 -29 -48.5t-75 -43t-104.5 -31.5 t-117.5 -12q-117 0 -214 54t-149 155q-66 -111 -163 -160t-189 -49q-57 0 -109.5 16t-92 50t-63.5 84t-24 120zM195 264q0 -84 51 -125t125 -41q53 0 102 21.5t86 53.5t59.5 70t22.5 70v131h-88q-72 0 -136.5 -5t-113.5 -23.5t-78.5 -54t-29.5 -97.5zM780 543h406 q66 0 84 13t18 52q0 51 -18.5 98.5t-52 84t-80.5 58t-105 21.5q-53 0 -99 -19.5t-80 -53t-53.5 -78.5t-19.5 -96v-80z" />
<glyph unicode="&#xe7;" horiz-adv-x="841" d="M94 375v219q0 82 23.5 152.5t72 123t123 82t176.5 29.5q66 0 119.5 -13.5t91 -33t58 -43t20.5 -43.5q0 -23 -17.5 -44.5t-41.5 -21.5q-14 0 -29.5 12.5t-40 26t-61.5 25.5t-92 12q-135 0 -202 -70.5t-67 -193.5v-219q0 -125 67.5 -195.5t203.5 -70.5q59 0 97 12 t62.5 26.5t40 26.5t31.5 12q29 0 45.5 -21t16.5 -44q0 -39 -71 -82t-192 -51l-30 -113q104 -4 150 -48t46 -99q0 -29 -11 -56.5t-33.5 -50t-56.5 -37t-81 -14.5q-20 0 -48 3t-52.5 9t-42 16.5t-17.5 24.5q0 10 8.5 29.5t24.5 19.5q12 0 38 -14t77 -14q59 0 83.5 23.5 t24.5 56.5q0 41 -34.5 61t-94.5 25l-78 6l45 172q-90 6 -156.5 37.5t-109.5 83t-64.5 119t-21.5 147.5z" />
<glyph unicode="&#xe8;" horiz-adv-x="937" d="M92 375v229q0 76 31 144.5t84 121t124.5 82t151.5 29.5q76 0 145.5 -27.5t122 -77t84 -118t31.5 -150.5q0 -59 -15 -92t-40 -49t-57.5 -19.5t-65.5 -3.5h-463v-75q0 -123 88 -195t224 -72q61 0 100 12.5t65.5 28t45 28.5t34.5 13q25 0 41.5 -22.5t16.5 -40.5t-21.5 -42 t-61.5 -44.5t-96.5 -34.5t-128.5 -14q-96 0 -177 27.5t-139 78.5t-91 123t-33 160zM225 543h410q61 0 81.5 13t20.5 56q0 49 -18.5 95.5t-52 83t-80.5 58t-105 21.5q-53 0 -99 -19.5t-81 -53t-55.5 -79.5t-20.5 -97v-78zM315 1378q0 20 13.5 39t36.5 19q8 0 18 -6l227 -125 q23 -12 23 -37q0 -23 -15.5 -40.5t-37.5 -17.5q-12 0 -21 7l-217 116q-27 12 -27 45z" />
<glyph unicode="&#xe9;" horiz-adv-x="937" d="M92 375v229q0 76 31 144.5t84 121t124.5 82t151.5 29.5q76 0 145.5 -27.5t122 -77t84 -118t31.5 -150.5q0 -59 -15 -92t-40 -49t-57.5 -19.5t-65.5 -3.5h-463v-75q0 -123 88 -195t224 -72q61 0 100 12.5t65.5 28t45 28.5t34.5 13q25 0 41.5 -22.5t16.5 -40.5t-21.5 -42 t-61.5 -44.5t-96.5 -34.5t-128.5 -14q-96 0 -177 27.5t-139 78.5t-91 123t-33 160zM225 543h410q61 0 81.5 13t20.5 56q0 49 -18.5 95.5t-52 83t-80.5 58t-105 21.5q-53 0 -99 -19.5t-81 -53t-55.5 -79.5t-20.5 -97v-78zM326 1268q0 25 22 37l230 125q6 6 16 6 q23 0 36 -18.5t13 -39.5q0 -33 -25 -45l-219 -116q-10 -6 -20 -7q-23 0 -38 17.5t-15 40.5z" />
<glyph unicode="&#xea;" horiz-adv-x="937" d="M92 375v229q0 76 31 144.5t84 121t124.5 82t151.5 29.5q76 0 145.5 -27.5t122 -77t84 -118t31.5 -150.5q0 -59 -15 -92t-40 -49t-57.5 -19.5t-65.5 -3.5h-463v-75q0 -123 88 -195t224 -72q61 0 100 12.5t65.5 28t45 28.5t34.5 13q25 0 41.5 -22.5t16.5 -40.5t-21.5 -42 t-61.5 -44.5t-96.5 -34.5t-128.5 -14q-96 0 -177 27.5t-139 78.5t-91 123t-33 160zM207 1266q0 12 6 24.5t20 20.5l213 114q16 10 35 11q18 0 35 -11l213 -114q14 -6 20.5 -19.5t6.5 -27.5q0 -20 -12.5 -35t-28.5 -15q-4 0 -10.5 2.5t-10.5 4.5l-213 112l-213 -114l-9 -4.5 t-9 -2.5q-16 0 -29.5 15.5t-13.5 38.5zM225 543h410q61 0 81.5 13t20.5 56q0 49 -18.5 95.5t-52 83t-80.5 58t-105 21.5q-53 0 -99 -19.5t-81 -53t-55.5 -79.5t-20.5 -97v-78z" />
<glyph unicode="&#xeb;" horiz-adv-x="937" d="M92 375v229q0 76 31 144.5t84 121t124.5 82t151.5 29.5q76 0 145.5 -27.5t122 -77t84 -118t31.5 -150.5q0 -59 -15 -92t-40 -49t-57.5 -19.5t-65.5 -3.5h-463v-75q0 -123 88 -195t224 -72q61 0 100 12.5t65.5 28t45 28.5t34.5 13q25 0 41.5 -22.5t16.5 -40.5t-21.5 -42 t-61.5 -44.5t-96.5 -34.5t-128.5 -14q-96 0 -177 27.5t-139 78.5t-91 123t-33 160zM225 543h410q61 0 81.5 13t20.5 56q0 49 -18.5 95.5t-52 83t-80.5 58t-105 21.5q-53 0 -99 -19.5t-81 -53t-55.5 -79.5t-20.5 -97v-78zM281 1290q0 33 21 53.5t54 20.5q31 0 52.5 -20.5 t21.5 -53.5q0 -31 -21.5 -53.5t-52.5 -22.5q-33 0 -54 23t-21 53zM532 1290q0 33 21.5 53.5t54.5 20.5t53.5 -20.5t20.5 -53.5q0 -31 -20.5 -53.5t-53.5 -22.5t-54.5 23t-21.5 53z" />
<glyph unicode="&#xec;" horiz-adv-x="391" d="M25 1378q0 20 13 39t36 19q8 0 18 -6l227 -125q23 -12 23 -37q0 -23 -15.5 -40.5t-37.5 -17.5q-12 0 -21 7l-217 116q-27 12 -26 45zM129 53v867q0 23 18.5 36t47.5 13t48 -13.5t19 -35.5v-867q0 -20 -19.5 -36.5t-47.5 -16.5q-29 0 -47.5 16.5t-18.5 36.5z" />
<glyph unicode="&#xed;" horiz-adv-x="391" d="M45 1268q0 25 23 37l229 125q6 6 16 6q23 0 36 -18.5t13 -39.5q0 -33 -24 -45l-219 -116q-10 -6 -21 -7q-23 0 -38 17.5t-15 40.5zM129 53v867q0 23 18.5 36t47.5 13t48 -13.5t19 -35.5v-867q0 -20 -19.5 -36.5t-47.5 -16.5q-29 0 -47.5 16.5t-18.5 36.5z" />
<glyph unicode="&#xee;" horiz-adv-x="391" d="M-80 1266q0 12 6 24.5t21 20.5l213 114q16 10 35 11q18 0 34 -11l213 -114q14 -6 20.5 -19.5t6.5 -27.5q0 -20 -12.5 -35t-28.5 -15q-4 0 -10 2.5t-10 4.5l-213 112l-213 -114q-4 -2 -9.5 -4.5t-9.5 -2.5q-16 0 -29.5 15.5t-13.5 38.5zM129 53v867q0 23 18.5 36t47.5 13 t48 -13.5t19 -35.5v-867q0 -20 -19.5 -36.5t-47.5 -16.5q-29 0 -47.5 16.5t-18.5 36.5z" />
<glyph unicode="&#xef;" horiz-adv-x="391" d="M-2 1290q0 33 21.5 53.5t54.5 20.5q31 0 52 -20.5t21 -53.5q0 -31 -21.5 -53.5t-51.5 -22.5q-33 0 -54.5 23t-21.5 53zM129 53v867q0 23 18.5 36t47.5 13t48 -13.5t19 -35.5v-867q0 -20 -19.5 -36.5t-47.5 -16.5q-29 0 -47.5 16.5t-18.5 36.5zM250 1290q0 33 21.5 53.5 t54.5 20.5t53 -20.5t20 -53.5q0 -31 -20.5 -53.5t-52.5 -22.5q-33 0 -54.5 23t-21.5 53z" />
<glyph unicode="&#xf0;" horiz-adv-x="987" d="M90 375v223q0 76 28.5 145.5t78 123t116 84t140.5 30.5q45 0 90 -12.5t83 -34t67.5 -53t43.5 -70.5q-10 145 -50 255t-95 187l-172 -98q-10 -6 -21 -6q-20 0 -36.5 19.5t-16.5 39.5q0 25 23 37l157 92q-51 53 -106 78t-109 27q-14 6 -24.5 19.5t-10.5 33.5 q0 23 16.5 45.5t59.5 22.5q70 0 145.5 -40t145.5 -118l150 86q6 6 18 6q20 0 36.5 -17.5t16.5 -39.5q0 -27 -22 -37l-137 -82q74 -111 119.5 -259.5t45.5 -324.5v-362q0 -78 -31.5 -147.5t-86 -124t-125 -86t-148.5 -31.5t-148.5 31.5t-123.5 86t-85 124t-32 147.5zM223 375 q0 -51 20.5 -99.5t55.5 -85t81 -59t99 -22.5t100.5 22.5t82 59t55 85t20.5 99.5v229q0 49 -21.5 95t-56 82t-82 56.5t-98.5 20.5q-53 0 -100 -22.5t-82 -58.5t-54.5 -83t-19.5 -96v-223z" />
<glyph unicode="&#xf1;" horiz-adv-x="1015" d="M129 53v867q0 23 18.5 36t47.5 13q25 0 43 -13.5t18 -35.5v-95q33 59 101.5 107.5t172.5 48.5q74 0 140.5 -29.5t116 -82t79 -122t29.5 -149.5v-545q0 -27 -21.5 -40t-46.5 -13q-23 0 -44 13.5t-21 39.5v545q0 49 -20.5 96t-55.5 83t-81 58.5t-99 22.5q-45 0 -89 -17.5 t-78 -51t-55.5 -82t-21.5 -109.5v-545q0 -20 -19.5 -36.5t-47.5 -16.5q-29 0 -47.5 16.5t-18.5 36.5zM184 1305q0 29 18.5 50t46 36.5t59.5 22.5t57 7q39 0 71.5 -11t63 -23.5t62.5 -23.5t73 -11q35 0 56.5 9t35.5 20.5t25.5 20.5t25.5 9q20 0 30.5 -16.5t10.5 -30.5 q0 -31 -18.5 -53.5t-45 -36.5t-56 -20.5t-52.5 -6.5q-41 0 -73.5 11.5t-62.5 24.5t-62.5 24.5t-73.5 11.5q-33 0 -56.5 -10.5t-40 -22.5t-29.5 -22.5t-26 -10.5q-20 0 -29.5 17.5t-9.5 34.5z" />
<glyph unicode="&#xf2;" horiz-adv-x="958" d="M90 375v223q0 76 31 145.5t83 123t122.5 84t150.5 30.5q78 0 148.5 -29.5t125 -82t86 -122t31.5 -149.5v-223q0 -76 -31.5 -146.5t-86 -124t-125 -86t-148.5 -32.5t-147.5 31.5t-122.5 86t-85 124t-32 147.5zM223 375q0 -51 19.5 -99.5t54.5 -85t81 -59t99 -22.5 t100.5 22.5t82 59t55 85t20.5 99.5v223q0 49 -20.5 96t-55 83t-82 58.5t-100.5 22.5t-100 -22.5t-81 -58.5t-53.5 -83t-19.5 -96v-223zM311 1378q0 20 13.5 39t35.5 19q8 0 19 -6l227 -125q23 -12 23 -37q0 -23 -15.5 -40.5t-38.5 -17.5q-12 0 -20 7l-217 116q-27 12 -27 45 z" />
<glyph unicode="&#xf3;" horiz-adv-x="958" d="M90 375v223q0 76 31 145.5t83 123t122.5 84t150.5 30.5q78 0 148.5 -29.5t125 -82t86 -122t31.5 -149.5v-223q0 -76 -31.5 -146.5t-86 -124t-125 -86t-148.5 -32.5t-147.5 31.5t-122.5 86t-85 124t-32 147.5zM223 375q0 -51 19.5 -99.5t54.5 -85t81 -59t99 -22.5 t100.5 22.5t82 59t55 85t20.5 99.5v223q0 49 -20.5 96t-55 83t-82 58.5t-100.5 22.5t-100 -22.5t-81 -58.5t-53.5 -83t-19.5 -96v-223zM322 1268q0 25 22 37l229 125q6 6 17 6q23 0 36 -18.5t13 -39.5q0 -33 -25 -45l-219 -116q-10 -6 -20 -7q-23 0 -38 17.5t-15 40.5z" />
<glyph unicode="&#xf4;" horiz-adv-x="958" d="M90 375v223q0 76 31 145.5t83 123t122.5 84t150.5 30.5q78 0 148.5 -29.5t125 -82t86 -122t31.5 -149.5v-223q0 -76 -31.5 -146.5t-86 -124t-125 -86t-148.5 -32.5t-147.5 31.5t-122.5 86t-85 124t-32 147.5zM203 1266q0 12 6 24.5t20 20.5l213 114q16 10 35 11 q18 0 35 -11l213 -114q14 -6 20.5 -19.5t6.5 -27.5q0 -20 -12.5 -35t-28.5 -15q-4 0 -10.5 2.5t-10.5 4.5l-213 112l-213 -114l-9 -4.5t-9 -2.5q-16 0 -29.5 15.5t-13.5 38.5zM223 375q0 -51 19.5 -99.5t54.5 -85t81 -59t99 -22.5t100.5 22.5t82 59t55 85t20.5 99.5v223 q0 49 -20.5 96t-55 83t-82 58.5t-100.5 22.5t-100 -22.5t-81 -58.5t-53.5 -83t-19.5 -96v-223z" />
<glyph unicode="&#xf5;" horiz-adv-x="958" d="M90 375v223q0 76 31 145.5t83 123t122.5 84t150.5 30.5q78 0 148.5 -29.5t125 -82t86 -122t31.5 -149.5v-223q0 -76 -31.5 -146.5t-86 -124t-125 -86t-148.5 -32.5t-147.5 31.5t-122.5 86t-85 124t-32 147.5zM162 1305q0 29 18.5 50t46 36.5t59 22.5t56.5 7 q39 0 71.5 -11t63.5 -23.5t62.5 -23.5t72.5 -11q35 0 56.5 9t36 20.5t25.5 20.5t26 9q20 0 30.5 -16.5t10.5 -30.5q0 -31 -18.5 -53.5t-45 -36.5t-56.5 -20.5t-52 -6.5q-41 0 -74 11.5t-62.5 24.5t-62.5 24.5t-74 11.5q-33 0 -56.5 -10.5t-39.5 -22.5t-29.5 -22.5 t-25.5 -10.5q-20 0 -29.5 17.5t-9.5 34.5zM223 375q0 -51 19.5 -99.5t54.5 -85t81 -59t99 -22.5t100.5 22.5t82 59t55 85t20.5 99.5v223q0 49 -20.5 96t-55 83t-82 58.5t-100.5 22.5t-100 -22.5t-81 -58.5t-53.5 -83t-19.5 -96v-223z" />
<glyph unicode="&#xf6;" horiz-adv-x="958" d="M90 375v223q0 76 31 145.5t83 123t122.5 84t150.5 30.5q78 0 148.5 -29.5t125 -82t86 -122t31.5 -149.5v-223q0 -76 -31.5 -146.5t-86 -124t-125 -86t-148.5 -32.5t-147.5 31.5t-122.5 86t-85 124t-32 147.5zM223 375q0 -51 19.5 -99.5t54.5 -85t81 -59t99 -22.5 t100.5 22.5t82 59t55 85t20.5 99.5v223q0 49 -20.5 96t-55 83t-82 58.5t-100.5 22.5t-100 -22.5t-81 -58.5t-53.5 -83t-19.5 -96v-223zM279 1290q0 33 21 53.5t54 20.5q31 0 52.5 -20.5t21.5 -53.5q0 -31 -21.5 -53.5t-52.5 -22.5q-33 0 -54 23t-21 53zM530 1290 q0 33 21.5 53.5t54.5 20.5t53.5 -20.5t20.5 -53.5q0 -31 -20.5 -53.5t-53.5 -22.5t-54.5 23t-21.5 53z" />
<glyph unicode="&#xf7;" horiz-adv-x="923" d="M84 492q0 25 14.5 41t36.5 16h653q20 0 37 -16.5t17 -40.5q0 -27 -16.5 -42.5t-37.5 -15.5h-653q-51 1 -51 58zM354 158q0 41 30 69.5t71 28.5t70.5 -28.5t29.5 -69.5t-29.5 -71t-70.5 -30t-71 30t-30 71zM354 827q0 41 30 70t71 29t70.5 -29t29.5 -70t-29.5 -69.5 t-70.5 -28.5t-71 28.5t-30 69.5z" />
<glyph unicode="&#xf8;" horiz-adv-x="958" d="M90 375v223q0 76 31 145.5t83 123t122.5 84t150.5 30.5q53 0 103.5 -14.5t95.5 -40.5l57 98q10 18 31 18q16 0 30.5 -12t14.5 -33q0 -16 -8 -26l-56 -97q55 -53 89 -123.5t34 -152.5v-223q0 -76 -31.5 -146.5t-86 -124t-125 -86t-148.5 -32.5q-115 0 -207 63l-55 -94 q-12 -20 -35 -21q-16 0 -28.5 11.5t-12.5 27.5q0 12 8 23l60 104q-53 53 -85 125t-32 150zM223 375q0 -88 51 -158l340 598q-66 43 -137 43q-53 0 -100 -22.5t-81 -58.5t-53.5 -83t-19.5 -96v-223zM332 158q66 -49 145 -49q53 0 100.5 22.5t82 59t55 85t20.5 99.5v223 q0 43 -15 84t-42 76z" />
<glyph unicode="&#xf9;" horiz-adv-x="1015" d="M119 371v547q0 18 19.5 34.5t47.5 16.5q27 0 46.5 -16.5t19.5 -34.5v-547q0 -49 19.5 -96.5t54 -84t82 -59t100.5 -22.5t99 21.5t81 58t55.5 83.5t20.5 99v549q0 20 19.5 34.5t47.5 14.5q29 0 47.5 -14.5t18.5 -34.5v-549q0 -78 -30.5 -147.5t-84 -122t-124 -84 t-150.5 -31.5t-151.5 31.5t-124 85t-83 123t-30.5 145.5zM340 1378q0 20 13.5 39t35.5 19q8 0 19 -6l227 -125q23 -12 22 -37q0 -23 -15 -40.5t-38 -17.5q-12 0 -20 7l-217 116q-27 12 -27 45z" />
<glyph unicode="&#xfa;" horiz-adv-x="1015" d="M119 371v547q0 18 19.5 34.5t47.5 16.5q27 0 46.5 -16.5t19.5 -34.5v-547q0 -49 19.5 -96.5t54 -84t82 -59t100.5 -22.5t99 21.5t81 58t55.5 83.5t20.5 99v549q0 20 19.5 34.5t47.5 14.5q29 0 47.5 -14.5t18.5 -34.5v-549q0 -78 -30.5 -147.5t-84 -122t-124 -84 t-150.5 -31.5t-151.5 31.5t-124 85t-83 123t-30.5 145.5zM356 1268q0 25 23 37l229 125q6 6 17 6q23 0 36 -18.5t13 -39.5q0 -33 -25 -45l-219 -116q-10 -6 -20 -7q-23 0 -38.5 17.5t-15.5 40.5z" />
<glyph unicode="&#xfb;" horiz-adv-x="1015" d="M119 371v547q0 18 19.5 34.5t47.5 16.5q27 0 46.5 -16.5t19.5 -34.5v-547q0 -49 19.5 -96.5t54 -84t82 -59t100.5 -22.5t99 21.5t81 58t55.5 83.5t20.5 99v549q0 20 19.5 34.5t47.5 14.5q29 0 47.5 -14.5t18.5 -34.5v-549q0 -78 -30.5 -147.5t-84 -122t-124 -84 t-150.5 -31.5t-151.5 31.5t-124 85t-83 123t-30.5 145.5zM233 1266q0 12 6.5 24.5t20.5 20.5l213 114q16 10 35 11q18 0 35 -11l213 -114q14 -6 20 -19.5t6 -27.5q0 -20 -12 -35t-29 -15q-4 0 -10 2.5t-10 4.5l-213 112l-213 -114l-9 -4.5t-10 -2.5q-16 0 -29.5 15.5 t-13.5 38.5z" />
<glyph unicode="&#xfc;" horiz-adv-x="1015" d="M119 371v547q0 18 19.5 34.5t47.5 16.5q27 0 46.5 -16.5t19.5 -34.5v-547q0 -49 19.5 -96.5t54 -84t82 -59t100.5 -22.5t99 21.5t81 58t55.5 83.5t20.5 99v549q0 20 19.5 34.5t47.5 14.5q29 0 47.5 -14.5t18.5 -34.5v-549q0 -78 -30.5 -147.5t-84 -122t-124 -84 t-150.5 -31.5t-151.5 31.5t-124 85t-83 123t-30.5 145.5zM307 1290q0 33 21.5 53.5t54.5 20.5q31 0 52.5 -20.5t21.5 -53.5q0 -31 -21.5 -53.5t-52.5 -22.5q-33 0 -54.5 23t-21.5 53zM559 1290q0 33 21.5 53.5t54.5 20.5t53.5 -20.5t20.5 -53.5q0 -31 -20.5 -53.5 t-53.5 -22.5t-54.5 23t-21.5 53z" />
<glyph unicode="&#xfd;" horiz-adv-x="860" d="M29 918q0 27 27.5 45t54.5 18q16 0 29.5 -6t17.5 -23l280 -753l264 753q12 29 46 29q25 0 53 -18.5t28 -47.5v-8t-4 -8l-317 -860q-31 -84 -66.5 -174t-85 -166t-114 -125t-150.5 -49q-27 0 -44 12t-17 47q0 23 9 42.5t32 19.5q49 0 94 31.5t84 86t69.5 126t49.5 151.5 l-334 858q-6 8 -6 19zM295 1268q0 25 22 37l230 125q6 6 16 6q23 0 36 -18.5t13 -39.5q0 -33 -24 -45l-219 -116q-10 -6 -21 -7q-23 0 -38 17.5t-15 40.5z" />
<glyph unicode="&#xfe;" horiz-adv-x="993" d="M131 -424v1937q0 23 18.5 36.5t47.5 13.5t48 -13.5t19 -36.5v-688q35 59 102.5 107.5t168.5 48.5q76 0 143 -29.5t117.5 -82t79 -122t28.5 -149.5v-223q0 -76 -29.5 -146.5t-80 -124t-116 -86t-136.5 -32.5q-94 0 -168 47t-109 110v-567q0 -18 -19.5 -34.5t-47.5 -16.5 q-29 0 -47.5 16.5t-18.5 34.5zM264 311q0 -23 18.5 -57.5t52.5 -67t80 -55t101 -22.5q51 0 97 22.5t81 59t55.5 85t20.5 99.5v223q0 49 -20.5 96t-55.5 83t-82 58.5t-100 22.5q-47 0 -91 -17.5t-79 -51t-56.5 -82t-21.5 -109.5v-287z" />
<glyph unicode="&#xff;" horiz-adv-x="860" d="M29 918q0 27 27.5 45t54.5 18q16 0 29.5 -6t17.5 -23l280 -753l264 753q12 29 46 29q25 0 53 -18.5t28 -47.5v-8t-4 -8l-317 -860q-31 -84 -66.5 -174t-85 -166t-114 -125t-150.5 -49q-27 0 -44 12t-17 47q0 23 9 42.5t32 19.5q49 0 94 31.5t84 86t69.5 126t49.5 151.5 l-334 858q-6 8 -6 19zM236 1290q0 33 21 53.5t54 20.5q31 0 52.5 -20.5t21.5 -53.5q0 -31 -21.5 -53.5t-52.5 -22.5q-33 0 -54 23t-21 53zM487 1290q0 33 21.5 53.5t54.5 20.5t53.5 -20.5t20.5 -53.5q0 -31 -20.5 -53.5t-53.5 -22.5t-54.5 23t-21.5 53z" />
<glyph unicode="&#x152;" horiz-adv-x="1720" d="M139 426v635q0 119 31 202t86 135t130 75.5t163 23.5q98 0 184 -35t135 -112v96q0 27 20.5 39t43.5 12h694q27 0 38 -18.5t11 -40.5q0 -27 -12 -46.5t-37 -19.5h-635v-563h301q25 0 37 -18.5t12 -42.5q0 -20 -11 -38t-38 -18h-301v-567h635q25 0 37 -19.5t12 -44.5 q0 -23 -11 -42t-38 -19h-694q-23 0 -43.5 13.5t-20.5 39.5v84q-49 -78 -135 -113.5t-184 -35.5q-88 0 -163 23.5t-130 75.5t-86 135t-31 204zM274 426q0 -162 77 -237.5t214 -75.5t214 75.5t77 237.5v635q0 160 -77 235.5t-214 75.5t-214 -75.5t-77 -235.5v-635z" />
<glyph unicode="&#x153;" horiz-adv-x="1579" d="M90 375v223q0 76 31 145.5t83 123t122.5 84t150.5 30.5q104 0 191.5 -53.5t136.5 -141.5q47 86 132 140.5t189 54.5q76 0 145.5 -27.5t122 -78t83 -118t30.5 -147.5q0 -59 -14 -93t-38.5 -50t-56.5 -19.5t-67 -3.5h-463v-75q0 -61 23.5 -110.5t64.5 -84.5t99.5 -53.5 t128.5 -18.5q59 0 97 12.5t63.5 28t43 28.5t35.5 13q25 0 42.5 -20.5t17.5 -44.5q0 -18 -22.5 -41t-63.5 -43.5t-98.5 -34.5t-124.5 -14q-127 0 -223.5 52t-147.5 144q-49 -86 -135 -141t-191 -55q-78 0 -147.5 31.5t-122.5 86t-85 124t-32 147.5zM223 375q0 -51 19.5 -99.5 t54.5 -85t81 -59t99 -22.5t100.5 22.5t82 59t55 85t20.5 99.5v223q0 49 -20.5 96t-55 83t-82 58.5t-100.5 22.5t-100 -22.5t-81 -58.5t-53.5 -83t-19.5 -96v-223zM868 543h410q61 0 81.5 13t20.5 56q0 49 -18.5 95.5t-52 83t-80.5 58t-105 21.5q-53 0 -99 -19.5t-81 -52 t-55.5 -77.5t-20.5 -94v-84z" />
<glyph unicode="&#x178;" horiz-adv-x="1087" d="M39 1440q0 27 24.5 42t49.5 15q33 0 53 -41l377 -747l379 747q20 41 53 41q25 0 49.5 -15.5t24.5 -41.5q0 -6 -2.5 -16.5t-6.5 -20.5l-426 -813q-4 -12 -4 -17v-520q0 -27 -20.5 -40t-46.5 -13q-25 0 -46.5 13.5t-21.5 39.5v520q0 10 -2 17l-424 813q-6 10 -8 20.5 t-2 16.5zM344 1810q0 33 21.5 53.5t54.5 20.5q31 0 52.5 -20.5t21.5 -53.5q0 -31 -21.5 -53t-52.5 -22q-33 0 -54.5 22.5t-21.5 52.5zM596 1810q0 33 21.5 53.5t54.5 20.5t53 -20.5t20 -53.5q0 -31 -20 -53t-53 -22t-54.5 22.5t-21.5 52.5z" />
<glyph unicode="&#x2c6;" horiz-adv-x="548" d="M0 1266q0 12 6 24.5t21 20.5l213 114q16 10 34 11q18 0 35 -11l213 -114q14 -6 20.5 -19.5t6.5 -27.5q0 -20 -12.5 -35t-28.5 -15q-4 0 -10 2.5t-11 4.5l-213 112l-213 -114l-9 -4.5t-9 -2.5q-16 0 -29.5 15.5t-13.5 38.5z" />
<glyph unicode="&#x2dc;" horiz-adv-x="634" d="M0 1305q0 29 18.5 50t46 36.5t59.5 22.5t56 7q39 0 72 -11t63.5 -23.5t62.5 -23.5t73 -11q35 0 56 9t35.5 20.5t26 20.5t25.5 9q20 0 30.5 -16.5t10.5 -30.5q0 -31 -18.5 -53.5t-45 -36.5t-56.5 -20.5t-52 -6.5q-41 0 -74 11.5t-62.5 24.5t-62.5 24.5t-74 11.5 q-33 0 -56 -10.5t-39.5 -22.5t-30 -22.5t-25.5 -10.5q-20 0 -29.5 17.5t-9.5 34.5z" />
<glyph unicode="&#x2000;" horiz-adv-x="1046" />
<glyph unicode="&#x2001;" horiz-adv-x="2093" />
<glyph unicode="&#x2002;" horiz-adv-x="1046" />
<glyph unicode="&#x2003;" horiz-adv-x="2093" />
<glyph unicode="&#x2004;" horiz-adv-x="697" />
<glyph unicode="&#x2005;" horiz-adv-x="523" />
<glyph unicode="&#x2006;" horiz-adv-x="348" />
<glyph unicode="&#x2007;" horiz-adv-x="348" />
<glyph unicode="&#x2008;" horiz-adv-x="261" />
<glyph unicode="&#x2009;" horiz-adv-x="418" />
<glyph unicode="&#x200a;" horiz-adv-x="116" />
<glyph unicode="&#x2010;" horiz-adv-x="845" d="M106 492q0 27 14.5 44t37.5 17h532q20 0 35.5 -17.5t15.5 -43.5q0 -27 -15 -42.5t-36 -15.5h-532q-52 1 -52 58z" />
<glyph unicode="&#x2011;" horiz-adv-x="845" d="M106 492q0 27 14.5 44t37.5 17h532q20 0 35.5 -17.5t15.5 -43.5q0 -27 -15 -42.5t-36 -15.5h-532q-52 1 -52 58z" />
<glyph unicode="&#x2012;" horiz-adv-x="845" d="M106 492q0 27 14.5 44t37.5 17h532q20 0 35.5 -17.5t15.5 -43.5q0 -27 -15 -42.5t-36 -15.5h-532q-52 1 -52 58z" />
<glyph unicode="&#x2013;" horiz-adv-x="968" d="M106 492q0 27 14.5 44t37.5 17h655q20 0 35.5 -17.5t15.5 -43.5q0 -27 -15 -42.5t-36 -15.5h-655q-52 1 -52 58z" />
<glyph unicode="&#x2014;" horiz-adv-x="1544" d="M106 492q0 27 14.5 44t37.5 17h1228q20 0 37 -17.5t17 -43.5q0 -27 -16.5 -42.5t-37.5 -15.5h-1228q-52 1 -52 58z" />
<glyph unicode="&#x2018;" horiz-adv-x="327" d="M68 1262q0 23 20.5 82t61.5 149q12 25 36 25q16 0 33 -11.5t17 -31.5q0 -10 -3 -17l-40 -106q29 -10 45 -35t16 -53q0 -41 -26.5 -69t-67.5 -28q-39 0 -65.5 28t-26.5 67z" />
<glyph unicode="&#x2019;" horiz-adv-x="323" d="M74 1423q0 39 26.5 67t67.5 28q39 0 66.5 -28t27.5 -67q0 -45 -82 -231q-6 -12 -16 -18.5t-21 -6.5q-18 0 -34.5 11.5t-16.5 31.5q0 12 4 19l41 106q-29 10 -46 35t-17 53z" />
<glyph unicode="&#x201a;" horiz-adv-x="350" d="M82 82q0 41 26.5 68.5t67.5 27.5q37 0 64.5 -27.5t27.5 -66.5q0 -23 -20.5 -82t-61.5 -149q-6 -12 -16 -18.5t-20 -6.5q-16 0 -34 11t-18 32q0 4 4 16l41 107q-29 10 -45 34.5t-16 53.5z" />
<glyph unicode="&#x201c;" horiz-adv-x="636" d="M68 1262q0 51 84 231q4 12 15 18.5t21 6.5q16 0 33 -11.5t17 -31.5q0 -10 -5 -17l-38 -106q29 -10 45 -35t16 -53q0 -41 -26.5 -69t-67.5 -28q-39 0 -66.5 28t-27.5 67zM377 1262q0 23 20.5 82t61.5 149q6 12 16 18.5t21 6.5q16 0 33.5 -11.5t17.5 -31.5q0 -4 -4 -17 l-41 -106q29 -10 45 -35t16 -53q0 -41 -26.5 -69t-67.5 -28q-37 0 -64.5 28t-27.5 67z" />
<glyph unicode="&#x201d;" horiz-adv-x="632" d="M76 1423q0 39 26.5 67t67.5 28q39 0 66.5 -28t27.5 -67q0 -47 -84 -231q-10 -25 -37 -25q-16 0 -32.5 11.5t-16.5 31.5q0 12 4 19l39 106q-29 10 -45 35t-16 53zM385 1423q0 39 26.5 67t67.5 28q37 0 64.5 -28t27.5 -67q0 -23 -20.5 -81t-61.5 -150q-6 -12 -16 -18.5 t-20 -6.5q-16 0 -34 11.5t-18 31.5q0 6 5 19l40 106q-29 10 -45 35t-16 53z" />
<glyph unicode="&#x201e;" horiz-adv-x="659" d="M82 82q0 41 26.5 68.5t67.5 27.5q37 0 64.5 -27.5t27.5 -66.5q0 -23 -20.5 -82t-61.5 -149q-6 -12 -16 -18.5t-20 -6.5q-16 0 -34 11t-18 32q0 4 4 16l41 107q-29 10 -45 34.5t-16 53.5zM389 82q0 41 26.5 68.5t67.5 27.5q39 0 67 -27.5t28 -66.5q0 -51 -84 -231 q-10 -25 -37 -25q-16 0 -32.5 11t-16.5 32q0 10 4 16l39 107q-29 10 -45.5 34.5t-16.5 53.5z" />
<glyph unicode="&#x2022;" horiz-adv-x="636" d="M100 614q0 43 17.5 81t47.5 68t69.5 47t84.5 17q43 0 83 -17t71 -47t48.5 -68t17.5 -81t-17.5 -81.5t-48.5 -67.5t-71 -46.5t-83 -17.5q-45 0 -84.5 17.5t-69.5 46.5t-47.5 67.5t-17.5 81.5z" />
<glyph unicode="&#x2026;" horiz-adv-x="1091" d="M82 82q0 41 26.5 68.5t67.5 27.5q37 0 64.5 -27.5t27.5 -68.5q0 -37 -27.5 -65.5t-64.5 -28.5q-41 0 -67.5 28.5t-26.5 65.5zM455 82q0 41 26.5 68.5t67.5 27.5q37 0 64.5 -27.5t27.5 -68.5q0 -37 -27.5 -65.5t-64.5 -28.5q-41 0 -67.5 28.5t-26.5 65.5zM825 82 q0 41 27 68.5t68 27.5q37 0 64.5 -27.5t27.5 -68.5q0 -37 -28 -65.5t-64 -28.5q-41 0 -68 28.5t-27 65.5z" />
<glyph unicode="&#x202f;" horiz-adv-x="418" />
<glyph unicode="&#x2039;" horiz-adv-x="481" d="M72 567q0 14 5 25.5t15 32.5l182 336q12 25 48 24q31 0 53 -21.5t22 -43.5q0 -10 -6 -23l-178 -330l178 -327q6 -12 6 -23q0 -23 -23.5 -44t-54.5 -21t-45 24l-182 336q-10 18 -15 29.5t-5 25.5z" />
<glyph unicode="&#x203a;" horiz-adv-x="481" d="M84 217q0 10 6 23l176 327l-176 330q-6 12 -6 23q0 23 21.5 44t52.5 21q16 0 29.5 -6t17.5 -18l182 -336q10 -18 16.5 -30.5t6.5 -27.5q0 -14 -6.5 -26.5t-16.5 -28.5l-182 -336q-10 -25 -43 -24q-31 0 -54.5 21.5t-23.5 43.5z" />
<glyph unicode="&#x205f;" horiz-adv-x="523" />
<glyph unicode="&#x20ac;" horiz-adv-x="1191" d="M66 569q0 23 14 39.5t37 16.5h127v196h-127q-23 0 -37 15.5t-14 37.5q0 23 14 39.5t37 16.5h127v131q0 119 32.5 202t90 135t134.5 75.5t167 23.5q98 0 177 -26.5t134 -73.5t86 -112.5t31 -141.5q0 -39 -17.5 -53.5t-50.5 -14.5q-68 0 -67 49q0 115 -78 181.5t-213 66.5 q-137 0 -214 -75.5t-77 -235.5v-131h346q20 0 36.5 -16.5t16.5 -39.5t-16.5 -38t-36.5 -15h-346v-196h346q20 0 36.5 -16.5t16.5 -39.5t-16.5 -38t-36.5 -15h-346v-100q0 -139 71.5 -221t221.5 -82q131 0 210 66.5t79 185.5q2 51 67 51q33 0 50.5 -14.5t17.5 -53.5 q0 -78 -31 -144.5t-86 -114.5t-134 -74.5t-177 -26.5q-94 0 -172 25.5t-134.5 78.5t-87 133t-30.5 191v100h-127q-23 0 -37 15.5t-14 37.5z" />
<glyph unicode="&#x2122;" horiz-adv-x="1282" d="M86 1528q0 16 8 30.5t25 14.5h403q16 0 23.5 -14.5t7.5 -30.5q0 -18 -7 -32.5t-24 -14.5h-153v-477q0 -16 -14.5 -25.5t-32.5 -9.5q-20 0 -36 9t-16 26v477h-151q-16 0 -24.5 14t-8.5 33zM608 1004v520q0 29 15.5 39t33.5 10q27 0 43.5 -15.5t30.5 -46.5l143 -325 l146 325q27 61 74 62q20 0 34.5 -10.5t14.5 -38.5v-520q0 -16 -15.5 -25.5t-33.5 -9.5t-32.5 9t-14.5 26v364l-138 -309q-14 -27 -35 -27q-10 0 -19 5t-13 22l-137 313v-368q0 -16 -15.5 -25.5t-32.5 -9.5q-18 0 -33.5 9t-15.5 26z" />
<glyph unicode="&#x25fc;" horiz-adv-x="983" d="M0 0v983h983v-983h-983z" />
</font>
</defs>
</svg>
